<?xml version="1.0" standalone="no"?>
<!DOCTYPE svg PUBLIC "-//W3C//DTD SVG 1.1//EN" "http://www.w3.org/Graphics/SVG/1.1/DTD/svg11.dtd" >
<svg xmlns="http://www.w3.org/2000/svg">
<metadata>
This is a custom SVG font generated by IcoMoon.
<iconset id="IconSweets Deluxe" name="IconSweets Deluxe" href="http://www.yummygum.com" grid="64"></iconset><author name="Yummygum" href="http://www.yummygum.com"></author><license name="Attribution-NoDerivs 3.0 Unported" href="http://creativecommons.org/licenses/by-nd/3.0/"></license>
</metadata>
<defs>
<font id="IconSweets-Deluxe" horiz-adv-x="2048" >
<font-face units-per-em="2048" ascent="1952" descent="-96" />
<missing-glyph horiz-adv-x="2048" />
<glyph unicode="&#xe000;" d="M 1721.52,357.544L 1303.932,761.029l 8.485,6.466c 85.957,100.586, 135.256,230.254, 135.256,369.869
			c0.00,311.852-253.104,564.604-581.544,564.604c-328.411,0.00-590.175-252.782-590.175-564.604c0.00-311.823, 261.764-573.762, 590.175-573.762
			c 81.481,0.00, 158.427,16.121, 228.089,45.144l 9.421,7.197l 433.093-443.187c 25.483-25.483, 66.853-25.483, 92.394,0.00l 92.365,92.394
			C 1747.032,290.692, 1747.032,332.061, 1721.52,357.544z M 865.075,767.086c-213.255,0.00-383.239,164.133-383.239,366.621c0.00,202.459, 169.984,366.621, 383.239,366.621
			c 213.285,0.00, 378.821-164.133, 378.821-366.621C 1243.897,931.218, 1078.331,767.086, 865.075,767.086z"  />
<glyph unicode="&#xe001;" d="M 1775.031,336.918L 1449.838,654.797c-25.98,25.951-68.081,25.951-94.091,0.00l-191.049,189.206
			l 10.503,5.50C 1258.057,942.95, 1301.65,1068.668, 1301.65,1203.368c0.00,292.454-230.341,528.589-522.796,528.589c-292.425,0.00-529.496-238.855-529.496-531.31
			s 237.071-521.275, 529.496-521.275c 105.238,0.00, 203.308,22.469, 285.755,75.396c 5.881,0.00, 5.881-2.955, 5.881-2.955l 191.137-191.137
			c-26.01-25.98-26.01-68.111,0.00-94.12l 317.82-325.135c 26.01-26.01, 68.14-26.01, 94.12,0.00l 101.435,101.376
			C 1801.011,268.807, 1801.011,310.938, 1775.031,336.918z M 774.261,854.506c-194.472,0.00-352.139,156.731-352.139,351.232
			c0.00,194.472, 157.667,352.11, 352.139,352.11c 194.472,0.00, 352.783-157.637, 352.783-352.11C 1127.014,1011.237, 968.733,854.506, 774.261,854.506z"  />
<glyph unicode="&#xe002;" d="M 497.752,475.948c-8.046,9.918-19.544,14.277-34.406,20.451s-16.179,7.431-36.923,7.431c-24.693,0.00-32.154-2.984-48.011-12.581
			c-15.828-9.596-26.829-18.695-32.914-34.523c-6.085-15.887-9.128-37.888-9.128-66.063l0.00-77.707 c0.00-25.776, 1.697-45.056, 5.032-57.929
			c 3.365-12.873, 8.953-12.288, 16.794-21.328c 7.87-9.099, 18.871-15.887, 33.031-20.334c 14.16-4.506, 42.745-1.287, 42.745-1.287
			s 14.365-2.867, 28.467,2.428c 14.073,5.237, 25.629,4.242, 34.64,15.272s 8.133,20.48, 10.884,33.236c 2.779,12.727, 4.155,32.709, 4.155,60.006l0.00,74.284 
			c0.00,21.475-1.492,37.478-4.447,48.011S 505.827,466.059, 497.752,475.948z M 451.438,289.434c0.00-13.107-0.878-21.65-2.633-25.60
			c-1.785-3.95-21.241-5.939-26.712-5.939c-5.325,0.00-23.552,2.165-25.366,6.524s-2.721,13.663-2.721,27.999l0.00,127.766 
			c0.00,15.536, 0.878,25.337, 2.721,29.374s 20.129,6.056, 25.60,6.056s 24.927-2.019, 26.595-6.056s 2.516-13.839, 2.516-29.374L 451.438,289.434 z M 219.341,424.748
			c-1.755,24.986-7.724,64.453-21.533,136.689L 125.864,561.437 l 65.214-226.977l0.00-119.954 l 51.346,0.00 l0.00,119.954 l 88.444,226.977L 273.584,561.437 C 261.061,503.684, 224.695,464.216, 219.341,424.748
			z M 1121.66,1298.308l-156.409,141.575c-13.985,13.605-13.839-13.224-13.839-13.224l0.00-275.573 c0.00-26.683, 13.136-13.136, 13.136-13.136l 156.906,145.701
			C 1134.036,1296.318, 1121.66,1298.308, 1121.66,1298.308z M 1681.057,678.583l-643.657,0.00 c-129.258,0.00-234.057-107.257-234.057-236.515l0.00-117.029 c0.00-129.287, 104.799-229.20, 234.057-229.20l 643.657,0.00 
			c 129.287,0.00, 234.057,99.913, 234.057,229.20l0.00,117.029 C 1915.114,571.326, 1810.344,678.583, 1681.057,678.583z M 1126.078,503.83l-81.51,0.00 l0.00-293.566 l-64.541,0.00 L 980.027,503.83 l-88.591,0.00 
			l0.00,57.607 l 234.672,0.00 L 1126.107,503.83 z M 1333.57,207.835l-65.302,0.00 l 1.609,25.19c-6.407-10.24-27.092-17.876-36.454-23.025
			c-9.362-5.091-20.129-7.665-32.329-7.665c-13.868,0.00-10.737,2.458-19.895,7.314s-15.887,11.352-20.217,19.427
			c-4.33,8.046-7.022,14.043-8.104,22.821c-1.053,8.748-1.609,26.156-1.609,52.224l 2.458,199.68l 59.421,0.00 l0.00-201.552 
			c0.00-23.611, 4.359-37.595, 5.822-42.072c 1.434-4.389, 5.383-6.641, 11.761-6.641c 6.846,0.00, 35.928,2.282, 37.215,6.846
			c 1.258,4.564, 1.902,19.31, 1.902,44.12l0.00,199.27 l 63.722,0.00 L 1333.57,207.835 z M 1566.72,289.931c0.00-22.235-1.492-36.367-4.447-47.25
			c-2.984-10.913-9.947-20.334-20.919-28.35s-17.32-11.995-32.388-11.995c-10.825,0.00-9.947,2.37-19.31,7.08c-9.362,4.74-25.249,11.82-33.031,21.328
			l-5.939-22.908L 1386.203,207.835 L 1386.203,565.094 l 63.078,0.00 l0.00-82.125 c 7.636,8.865, 30.749,15.448, 40.112,19.807c 9.362,4.359, 8.572,6.554, 19.544,6.554
			c 12.668,0.00, 16.911-1.989, 26.214-5.939c 9.275-3.979, 16.384-9.509, 21.27-16.677c 4.857-7.168, 7.812-14.16, 8.806-21.036
			c 0.965-6.846, 1.492-21.475, 1.492-43.886L 1566.72,289.931 z M 1774.563,354.121l-94.559,0.00 l0.00-72.909 c0.00-13.722, 0.995-22.557, 2.984-26.507
			c 1.96-4.008, 8.221-5.939, 13.868-5.939c 7.022,0.00, 11.703,2.633, 14.043,7.899c 2.37,5.266, 3.54,0.79, 3.54,15.887l0.00,35.109 l 60.153,0.00 l0.00-22.411 
			c0.00-18.754-1.20-13.634-3.569-23.698s-7.899-13.488-16.56-24.927s-12.376-12.698-25.717-18.403c-13.312-5.705, 1.024-8.572-19.076-8.572
			c-19.485,0.00-16.589,2.809-31.539,8.455c-14.921,5.617-26.536,6.056-34.845,15.887c-8.28,9.83-14.043,13.312-17.262,25.132
			c-3.189,11.791-4.798,28.965-4.798,51.551l0.00,88.444 c0.00,26.507, 3.599,47.426, 10.737,62.757c 7.168,15.301, 18.90,27.034, 35.196,35.196
			c 16.325,8.133, 14.95,8.572, 36.133,8.572c 25.893,0.00, 16.179-1.258, 33.002-11.088c 16.852-9.83, 21.328-22.85, 28.116-39.088
			c 6.788-16.238, 10.211-39.058, 10.211-68.462L 1774.621,354.121 z M 1856.60,1731.811L 164.571,1731.811 c-32.30,0.00-58.514-26.214-58.514-58.514l0.00-758.228 c0.00-32.30, 26.214-58.544, 58.514-58.544
			l 1692.028,0.00 c 32.30,0.00, 58.514,26.214, 58.514,58.544L 1915.114,1673.296 C 1915.114,1705.596, 1888.90,1731.811, 1856.60,1731.811z M 1009.02,1031.131c-145.905,0.00-264.192,120.715-264.192,266.65
			s 118.287,264.192, 264.192,264.192s 264.163-118.287, 264.163-264.192S 1154.955,1031.131, 1009.02,1031.131z M 1698.436,446.457c-6.407,0.00-12.815-1.931-14.307-5.822
			s-2.282-14.365-2.282-31.422l0.00-22.177 l 29.403,0.00 l0.00,22.177 c0.00,15.682-0.819,25.834-2.487,30.398C 1707.037,444.175, 1703.614,446.457, 1698.436,446.457z
			 M 1477.398,455.614c-5.617,0.00-23.903-2.107-25.60-6.29c-1.668-4.242-2.516-14.746-2.516-31.656l0.00-125.864 c0.00-16.325, 0.965-26.77, 2.896-31.334
			c 1.872-4.564, 29.433-6.846, 35.05-6.846c 5.793,0.00, 9.567,2.37, 11.323,7.08c 1.755,4.74, 2.633,16.121, 2.633,34.055l0.00,122.909 
			c0.00,15.682-0.965,25.951-2.984,30.749C 1496.24,453.186, 1483.191,455.614, 1477.398,455.614z M 686.548,292.389c0.00-24.869-0.614-39.556-1.902-44.12
			c-1.317-4.564-13.926-6.846-20.773-6.846c-6.407,0.00-34.728,2.224-36.162,6.641c-1.434,4.389-2.165,18.432-2.165,42.072l0.00,210.066 l-53.307,0.00 l0.00-200.909 
			c0.00-26.068, 0.527-43.447, 1.609-52.224c 1.053-8.777, 3.774-6.232, 8.075-14.277c 10.064-18.695, 40.287-26.185, 49.913-20.919
			c 9.362,5.149, 48.362,9.128, 54.74,19.368l-1.609-20.334l 55.53,0.00 l0.00,289.324 l-53.95,0.00 L 686.548,292.389 z"  />
<glyph unicode="&#xe003;" d="M 425.253,1002.196l 170.803,0.00 L 596.056,1253.339 l 127.912,447.576L 558.226,1704.572c-23.523-130.194-40.258-224.987-50.264-299.037
			c-3.306,46.841-17.905,163.606-43.827,299.037l-165.742,0.00 l 126.859-451.233L 425.253,1002.196 z M 717.707,1213.052c0.00-48.274, 3.131-84.524, 9.421-108.661
			s 16.794-44.734, 31.51-61.703c 14.716-17.028, 40.229-24.839, 66.794-33.295c 26.565-8.426, 80.955-12.639, 119.223-12.639
			c 34.289,0.00, 50.00,4.915, 76.42,14.775s 48.099,20.275, 64.951,40.989c 16.852,20.714, 27.853,42.979, 33.002,66.853
			c 5.149,23.845, 7.724,61.352, 7.724,112.494l0.00,144.179 c0.00,40.287-2.809,70.276-8.338,89.995c-5.559,19.719-15.945,38.883-31.071,57.432
			s-36.659,33.616-64.512,45.202c-27.824,11.586-46.577,17.379-85.431,17.379c-46.285,0.00-111.119-9.011-140.815-27.004
			c-29.725-17.993-50.293-41.867-61.703-71.563c-11.44-29.755-17.145-71.007-17.145-123.875L 717.736,1213.052 z M 888.422,1411.591
			c0.00,29.169, 1.726,47.514, 5.149,55.091c 3.423,7.548, 17.613,11.352, 27.882,11.352s 24.313-3.803, 27.443-11.352
			c 3.131-7.578, 4.71-25.922, 4.71-55.091l0.00-237.89 c0.00-24.576-1.668-40.58-4.944-48.011s-24.693-11.147-34.962-11.147
			c-10.006,0.00-16.706,4.096-20.129,12.20c-3.423,8.133-5.149,25.659-5.149,52.517L 888.422,1411.591 z M 1206.74,1042.044
			c 8.104-15.126, 20.773-22.411, 37.917-31.568c 17.145-9.128, 46.021-6.378, 72.031-6.378c 22.85,0.00, 43.096-2.516, 60.621,7.051
			c 17.584,9.596, 32.358,19.105, 44.383,38.298l-3.013-42.394l 176.157,0.00 L 1594.836,1586.754 L 1419.264,1586.754 l0.00-398.57 c0.00-46.577-1.229-74.167-3.657-82.71
			c-2.428-8.572-17.379-12.873-30.223-12.873c-11.995,0.00-21.797,4.155-24.517,12.434s-4.067,34.582-4.067,78.877L 1356.80,1586.754 l-168.287,0.00 l0.00-399.419 
			c0.00-48.83, 0.995-81.51, 3.013-97.924S 1198.607,1057.20, 1206.74,1042.044z M 1539.657,880.925l-1053.257,0.00 c-161.558,0.00-292.571-131.043-292.571-292.571l0.00-175.572 
			c0.00-161.558, 131.013-287.685, 292.571-287.685l 1053.257,0.00 c 161.558,0.00, 287.685,126.128, 287.685,287.685l0.00,175.572 C 1827.343,749.883, 1701.215,880.925, 1539.657,880.925z
			 M 600.123,650.789l-52.985,0.00 l0.00-410.683 l-122.558,0.00 L 424.58,650.789 l-59.977,0.00 l0.00,115.215 l 235.52,0.00 L 600.123,650.789 z M 953.812,240.106l-129.17,0.00 l 2.194,34.67
			c-8.806-14.043-19.632-24.605-32.505-31.627s-27.736-10.562-44.50-10.562c-19.046,0.00-39.76,3.365-52.341,10.064
			c-12.551,6.70-21.826,15.594-27.794,26.712s-9.684,22.704-11.176,34.757c-1.463,12.025-2.165,35.957-2.165,71.768l0.00,273.993 l 120.861,0.00 l0.00-276.509 
			c0.00-32.446, 0.995-51.727, 2.984-57.841c 1.989-6.056, 18.373-9.099, 27.18-9.099c 9.421,0.00, 22.352,3.131, 24.108,9.392
			c 1.814,6.29, 2.692,26.507, 2.692,60.65l0.00,274.578 l 119.662,0.00 L 953.841,240.106 z M 1302.938,356.403c0.00-30.574, 0.41-53.365-3.686-68.345
			s-13.692-27.97-28.76-38.971c-15.067-11.03-28.116-16.501-48.859-16.501c-14.892,0.00-28.76,3.248-41.633,9.772
			c-12.873,6.524-39.322,16.296-50.00,29.316l-8.163-31.539l-115.156,0.00 L 1006.68,766.032 l 123.319,0.00 l0.00-152.137 c 10.445,12.171, 36.805,21.27, 49.679,27.238
			s 26.858,9.011, 41.955,9.011c 17.408,0.00, 32.475-2.75, 45.261-8.163c 12.785-5.50, 17.671-13.107, 24.342-22.967
			c 6.70-9.83, 8.309-19.485, 9.684-28.906c 1.346-9.421, 2.019-0.293, 2.019-31.071L 1302.938,356.403 z M 1651.829,470.506l-174.139,0.00 l0.00-119.428 
			c0.00-18.90, 1.375-31.042, 4.096-36.454c 2.75-5.471, 12.844-8.163, 20.597-8.163c 9.626,0.00, 23.406,3.599, 26.653,10.796
			c 3.218,7.256, 4.857,21.27, 4.857,42.013l0.00,54.974 l 117.936,0.00 l0.00-30.808 c0.00-25.776-1.638-45.553-4.886-59.392c-3.218-13.809-10.825-28.613-22.762-44.325
			s-31.978-27.472-50.322-35.372c-18.315-7.841-41.311-11.761-68.959-11.761c-26.829,0.00-43.184,3.891-63.722,11.644
			c-20.539,7.724-40.17,18.373-51.58,31.89c-11.44,13.517-21.767,28.409-26.185,44.617s-6.612,39.848-6.612,70.861l0.00,136.28 
			c0.00,36.425, 4.915,35.957, 14.775,56.993c 9.83,21.065, 32.066,37.186, 54.477,48.362c 22.44,11.235, 40.872,16.852, 70.012,16.852
			c 35.635,0.00, 69.895-6.758, 93.038-20.275c 23.172-13.517, 39.409-31.422, 48.713-53.745s 14.014-39.058, 14.014-79.521L 1651.829,470.506 z M 1179.209,566.352
			c-2.721,6.641-22.674,9.889-30.661,9.889c-7.753,0.00-12.785-2.867-15.097-8.631s-3.452,8.982-3.452-14.277l0.00-194.414 
			c0.00-22.411, 1.317-36.776, 3.92-43.067c 2.633-6.261, 7.841-9.392, 15.565-9.392c 7.958,0.00, 27.765,3.218, 30.193,9.713
			c 2.399,6.524, 3.599,22.118, 3.599,46.87l0.00,190.288 C 1183.276,574.896, 1181.901,559.74, 1179.209,566.352z M 1502.062,583.556
			c-8.806,0.00-19.105-2.662-21.241-7.987c-2.077-5.354-3.131,2.194-3.131-21.27l0.00-23.201 l 46.87,0.00 l0.00,23.201 c0.00,21.533-1.17,13.546-3.452,19.836
			C 1518.768,580.396, 1509.171,583.556, 1502.062,583.556z"  />
<glyph unicode="&#xe004;" d="M 1539.657,1466.039l-409.60,0.00 c-193.887,0.00-355.972-157.199-355.972-351.086l0.00-405.943 c0.00-193.916, 162.085-351.086, 355.972-351.086l 409.60,0.00 c 193.887,0.00, 343.771,157.169, 343.771,351.086
			L 1883.429,1114.953 C 1883.429,1308.869, 1733.544,1466.039, 1539.657,1466.039z M 1594.339,1176.891l-175.397,0.00 l0.00-701.411 L 1242.258,475.48 L 1242.258,1176.891 l-176.421,0.00 l0.00,176.538 l 528.501,0.00 L 1594.339,1176.891 z
			 M 403.28,1022.442c0.00,0.00-62.259,169.457-93.155,330.957L 158.808,1353.399 l 148.86-532.86l0.00-347.048 l 173.232,0.00 L 480.90,820.539 l 185.461,532.86l-173.144,0.00 
			C 465.159,1224.316, 403.28,1022.442, 403.28,1022.442z"  />
<glyph unicode="&#xe005;" d="M 180.955,924.548c-1.785,24.986-35.138,64.453-48.976,136.66L 69.164,1061.208 l 65.214-226.948l0.00-124.84 L 215.625,709.42 l0.00,124.84 l 85.987,226.948L 235.169,1061.208 
			C 222.618,1003.513, 186.28,964.045, 180.955,924.548z M 458.752,975.748c-8.075,9.889-9.801,14.277-24.664,20.451
			c-14.863,6.173-16.179,7.431-36.893,7.431c-24.722,0.00-32.183-2.984-48.04-12.581c-15.828-9.626-26.829-18.666-32.914-34.523
			c-6.085-15.857-9.128-37.859-9.128-66.063l0.00-77.678 c0.00-25.776, 1.697-45.085, 5.032-57.929c 3.365-12.873, 8.982-14.746, 16.794-23.786
			c 7.87-9.07, 18.871-15.857, 33.031-20.334s 42.745-1.258, 42.745-1.258s 14.365-2.867, 28.467,2.428c 14.102,5.237, 15.887,4.272, 24.898,15.301
			c 9.011,11.03, 14.863,22.908, 17.613,35.635s 4.125,32.709, 4.125,60.006l0.00,74.313 c0.00,21.475-1.492,37.478-4.447,47.982
			C 472.357,955.619, 466.827,965.829, 458.752,975.748z M 424.609,789.263c0.00-13.136-0.848-21.65-2.633-25.629c-1.755-3.979-23.669-5.939-29.14-5.939
			c-5.325,0.00-21.094,2.165-22.908,6.524c-1.814,4.359-2.75,13.692-2.75,28.028l0.00,127.766 c0.00,15.536, 0.907,25.337, 2.75,29.345
			c 1.814,4.037, 17.671,6.056, 23.142,6.056s 27.385-2.019, 29.023-6.056c 1.697-4.037, 2.516-13.809, 2.516-29.345L 424.609,789.263 z M 1504.227,962.728
			c-5.617,0.00-19.046-2.107-20.714-6.29c-1.697-4.184-2.545-14.746-2.545-31.656l0.00-130.721 c0.00-16.355, 0.965-26.741, 2.896-31.305
			c 1.872-4.564, 29.433-6.875, 35.079-6.875c 5.764,0.00, 9.538,2.37, 11.323,7.08c 1.755,4.71, 2.633,16.091, 2.633,34.085L 1532.899,924.782 
			c0.00,15.711-0.995,25.951-2.984,30.749C 1527.925,960.30, 1510.02,962.728, 1504.227,962.728z M 1732.579,953.60c-6.407,0.00-17.671-1.931-19.193-5.851
			c-1.521-3.891-2.282-14.365-2.282-31.422l0.00-27.063 l 34.289,0.00 l0.00,27.063 c0.00,15.682-0.848,25.834-2.516,30.398
			C 1741.18,951.289, 1737.757,953.60, 1732.579,953.60z M 1710.314,1295.382L 1066.686,1295.382 c-129.287,0.00-234.086-104.799-234.086-234.057l0.00-292.571 
			c0.00-129.258, 104.799-234.028, 234.086-234.028l 643.628,0.00 c 129.287,0.00, 234.086,104.77, 234.086,234.028l0.00,292.571 C 1944.40,1190.583, 1839.601,1295.382, 1710.314,1295.382z
			 M 1160.221,1003.63L 1071.397,1003.63 l0.00-296.024 l-64.541,0.00 L 1006.855,1003.63 l-91.048,0.00 l0.00,55.15 l 244.414,0.00 L 1160.221,1003.63 z M 1362.827,707.635l-67.73,0.00 l 1.609,25.22
			c-6.407-10.24-27.092-17.935-36.454-23.025c-9.362-5.149-20.129-2.809-32.329-2.809c-13.868,0.00-10.737,2.458-19.895,7.314
			s-11.001,6.466-15.331,14.57c-4.33,8.046-7.051,16.443-8.104,25.249c-1.083,8.748-1.609,26.185-1.609,52.224l0.00,194.794 l 64.278,0.00 l0.00-196.637 
			c0.00-23.64, 4.359-37.654, 5.822-42.072c 1.463-4.447, 5.383-6.671, 11.761-6.671c 6.846,0.00, 31.071,2.311, 32.358,6.875
			c 1.287,4.564, 1.902,19.251, 1.902,44.12l0.00,194.355 l 63.722,0.00 L 1362.827,707.635 z M 1593.52,792.218c0.00-22.294-1.492-38.853-4.447-49.708
			c-2.984-10.913-9.947-20.363-20.919-28.35c-10.971-8.016-17.291-11.995-32.358-11.995c-10.825,0.00-9.947,2.341-19.31,7.08s-25.249,11.82-33.031,21.299
			L 1477.486,707.635l-59.597,0.00 L 1417.889,1062.466 l 60.65,0.00 l0.00-72.382 c 7.636,8.865, 28.321,15.477, 37.683,19.807c 9.362,4.359, 8.572,6.524, 19.544,6.524
			c 12.668,0.00, 16.911-1.96, 26.214-5.968c 9.275-3.95, 16.413-9.509, 21.27-16.677c 4.886-7.139, 7.812-14.16, 8.806-21.007
			c 0.995-6.875, 1.492-21.475, 1.492-43.886L 1593.549,792.218 z M 1806.248,856.349l-96.987,0.00 l0.00-67.994 c0.00-13.722, 0.965-22.557, 2.984-26.536
			c 1.96-3.979, 13.107-5.939, 18.754-5.939c 6.992,0.00, 11.674,2.633, 14.043,7.899c 2.37,5.296, 3.54,0.819, 3.54,15.887l0.00,47.338 l 57.695,0.00 l0.00-29.755 
			c0.00-18.725-1.20-18.52-3.54-28.584c-2.37-10.035-0.585-20.773-9.245-32.241c-8.689-11.41-7.519-15.126-20.86-20.831
			s-8.719-3.716-28.818-3.716c-19.515,0.00-24.547-2.048-39.468,3.599c-14.95,5.617-24.108,8.514-32.417,18.344
			c-8.309,9.801-14.043,20.626-17.262,32.417s-4.798,28.994-4.798,51.58l0.00,88.444 c0.00,26.507, 3.569,47.426, 10.737,62.727
			c 7.168,15.301, 16.443,27.034, 32.768,35.196c 16.296,8.163, 22.85,12.229, 44.032,12.229c 25.922,0.00, 16.208-4.915, 33.031-14.746
			s 18.90-22.821, 25.688-39.088c 6.758-16.208, 10.181-39.029, 10.181-68.432L 1806.307,856.349 z M 659.749,799.532c0.00-24.869-0.644-39.585-1.931-44.178
			c-1.317-4.506-43.184-6.817-50.03-6.817c-6.407,0.00-10.328,2.194-11.761,6.671c-1.463,4.389-2.165,18.432-2.165,42.043l0.00,202.752 l-50.878,0.00 l0.00-200.88 
			c0.00-26.068, 0.527-43.476, 1.609-52.224c 1.053-8.777, 3.774-6.232, 8.104-14.307c 4.33-8.046, 11.088-14.541, 20.217-19.427
			c 9.128-4.857-30.574-7.285-16.677-7.285c 12.171,0.00, 32.124,0.673, 41.487,5.822c 9.362,5.091, 55.647,9.128, 62.054,19.368l-1.609-25.19l 57.958,0.00 
			L 716.127,999.973 L 659.749,999.973 L 659.749,799.532 z"  />
<glyph unicode="&#xe006;" d="M 1786.324,1558.082l-124.431,129.989c0.00,0.00-37.127,50.615-80.603,7.109l-99.562-103.834
			l 208.779-203.63l 97.339,96.90C 1787.816,1484.617, 1828.279,1516.098, 1786.324,1558.082z M 1153.755,849.766l 497.342,483.24l-221.038,209.306L 927.481,1044.414
			l-77.21-194.121l 98.743-107.90L 1153.755,849.766z M 1627.077,1164.281c-80.457,0.00-89.585-68.725-89.585-68.725l0.00-765.104 c0.00-32.329-26.214-58.514-58.544-58.514l-1053.257,0.00 
			c-32.329,0.00-58.514,26.185-58.514,58.514l0.00,1053.257 c0.00,32.30, 26.185,58.514, 58.514,58.514l 753.898,0.00 c0.00,0.00, 67.145,29.257, 67.145,85.928c0.00,0.00, 3.891,89.615-61.937,89.615L 367.177,1617.766 
			c-96.958,0.00-175.543-78.585-175.543-175.543l0.00-1170.286 c0.00-96.958, 78.585-175.543, 175.543-175.543l 1170.286,0.00 c 96.90,0.00, 175.543,78.585, 175.543,175.543L 1713.006,1095.556 C 1713.035,1148.599, 1627.077,1164.281, 1627.077,1164.281z
			 M 784.004,690.871l 115.332,17.349l-89.995,83.734L 784.004,690.871z"  />
<glyph unicode="&#xe007;" d="M 1011.068,1732.396c-452.637,0.00-821.687-367.089-821.687-819.727s 369.05-819.61, 821.687-819.61c 452.637,0.00, 819.434,366.972, 819.434,819.61
			S 1463.706,1732.396, 1011.068,1732.396z M 306.293,912.552c0.00,74.869, 17.232,146.929, 39.029,214.543l-3.686,10.152c 12.785-3.54, 19.339-9.128, 30.661-16.647
			c 15.916-10.445, 28.906-20.86, 38.971-31.071c 10.064-10.299, 19.046-26.712, 27.034-49.386c 25.571-74.576, 56.993-183.589, 94.296-293.595
			c 34.816-102.663, 147.105-438.565, 147.105-438.565l 2.311-14.307C 460.156,411.728, 306.293,645.025, 306.293,912.552z M 1262.241,260.03
			c-78.00-30.047-162.757-48.362-251.377-48.362c-92.891,0.00-181.775,25.541-263.197,58.602l 72.645-0.761l 212.144,685.846l 234.847-687.66L 1262.241,260.03z
			 M 1173.68,1206.352l-246.901-1.141c0.00,0.00-0.293-24.927, 15.623-52.224c 18.842-14.043, 78.731-4.037, 78.731-4.037l-184.086-620.281
			c-44.851,135.227-82.564,265.157-113.167,356.44c-30.574,91.224-50.907,153.19-60.943,185.841c-1.697,7.139-3.277,13.429-4.74,18.90
			c-1.463,5.442-2.194,11.088-2.194,16.94c0.00,2.955, 0.848,6.29, 2.516,10.064s 6.261,7.344, 13.809,10.708
			c 7.929,3.335, 18.812,6.612, 32.622,9.713c 13.809,3.16, 42.043,6.407, 70.042,9.743l0.00,61.206 l-397.019-1.20
			c 109.129,243.888, 348.453,410.156, 632.92,410.156c 226.655,0.00, 428.003-113.313, 555.739-280.488c-93.652-46.665-87.303-137.713-87.303-137.713
			s-19.544-82.651, 113.752-147.076c-23.757-81.13-160.037-467.968-184.496-543.803L 1173.68,1206.352z M 1430.674,353.565c0.00,0.00-14.277-21.211-3.365,11.205
			c 40.229,119.34, 79.199,238.329, 116.912,348.745c 48.011,140.376, 83.50,259.131, 106.584,322.823c0.00,0.00, 38.736,25.834, 38.736,44.12
			c 13.253-53.804, 20.275-110.036, 20.275-167.907C 1709.817,684.025, 1600.219,481.156, 1430.674,353.565z"  />
<glyph unicode="&#xe008;" d="M 1689.541,1079.991c 13.253-53.804, 20.275-110.036, 20.275-167.877c0.00-228.528-109.597-431.426-279.142-558.987c0.00,0.00-14.277-21.211-3.365,11.205
	c 40.229,119.34, 79.199,238.329, 116.912,348.745c 48.011,140.405, 83.50,259.131, 106.584,322.823C 1650.805,1035.90, 1689.541,1050.734, 1689.541,1079.991z
	 M 774.963,1207.728l0.00-61.206 c-28.028-3.335-56.232-6.583-70.042-9.713s-24.664-6.407-32.622-9.772c-7.519-3.335-12.142-6.905-13.809-10.65
	c-1.697-3.774-2.516-7.139-2.516-10.064c0.00-5.881, 0.731-11.557, 2.194-16.998s 3.043-11.703, 4.71-18.871c 10.064-32.622, 30.398-94.588, 60.972-185.841
	c 30.603-91.253, 68.315-221.213, 113.167-356.411l 184.086,620.251c0.00,0.00-59.889-10.035-78.731,4.008c-15.887,27.355-15.623,54.096-15.623,54.096l 246.901-0.673
	l 234.818-698.309c 24.459,75.835, 160.709,462.643, 184.496,543.803c-133.266,64.424-115.566,147.076-115.566,147.076s-4.506,91.048, 89.147,137.713
	c-127.707,167.175-329.084,280.488-555.739,280.488c-284.467,0.00-523.761-166.268-632.92-410.156L 774.963,1207.728z M 820.312,269.071l 212.144,685.817
	l 234.847-687.66l-5.12-7.636c-78.00-30.076-162.728-48.391-251.348-48.391c-92.891,0.00-181.775,23.728-263.197,56.73L 820.312,269.071z M 336.135,1136.808
	c 12.785-3.569, 24.839-9.128, 36.133-16.677c 15.916-10.445, 28.906-20.831, 38.971-31.071c 10.064-10.299, 19.046-26.741, 27.034-49.357
	c 25.571-74.606, 56.993-183.618, 94.296-293.625c 34.787-102.663, 147.134-438.565, 147.134-438.565l 2.311-14.307c-221.828,118.082-373.877,351.378-373.877,618.935
	c0.00,74.869, 15.419,146.90, 37.186,214.513"  />
<glyph unicode="&#xe009;" d="M 1885.272,971.886L 1301.943,971.886 l0.00,351.086 c0.00,32.30-26.214,58.514-58.514,58.514l-468.114,0.00 c-32.30,0.00-58.514-26.214-58.514-58.514l0.00-235.286 L 131.657,1088.914c-32.30,0.00-58.514-26.214-58.514-58.514l0.00-526.629 
			c0.00-32.329, 26.214-58.514, 58.514-58.514l 1753.615,0.00 c 32.30,0.00, 58.514,26.185, 58.514,58.514l0.00,409.60 C 1943.786,945.671, 1917.572,971.886, 1885.272,971.886z M 481.134,738.501L 481.134,679.314 L 254.186,679.314 
			c 0.614,23.757, 5.705,45.495, 15.301,65.156c 9.304,22.089, 31.247,30.866, 65.829,55.53c 30.018,21.475, 49.445,22.235, 58.28,31.539
			c 13.575,14.453, 20.334,21.182, 20.334,38.385c0.00,14.014-3.891,25.659-11.644,34.962c-7.782,9.275-18.90,13.956-33.382,13.956
			c-19.807,0.00-33.295-7.402-40.463-22.177c-4.125-8.514-6.554-22.118-7.314-40.697L 257.814,855.969 c 1.083,28.175, 6.173,50.966, 15.331,68.315
			c 17.379,33.09, 48.274,49.62, 92.657,49.62c 35.079,0.00, 62.991-9.743, 83.734-29.14c 20.743-19.456, 32.944-45.144, 32.944-77.151
			c0.00-24.547-7.314-37.186-21.972-56.232c-9.626-12.698-27.238-12.112-49.24-27.648l-26.097-18.52c-17.584-4.681-26.361-10.796-48.742-26.741L 481.134,738.472 z
			 M 1069.495,913.371l-61.264,0.00 l0.00,175.543 l-57.841,0.00 l-1.814,60.796c 20.509,0.907, 20.246,2.311, 28.467,4.155c 13.078,2.867, 14.57-0.468, 22.791,8.221
			c 5.617,5.939, 9.86,13.868, 12.756,23.757c 1.697,5.939, 2.516,17.671, 2.516,20.568l 54.389,0.00 L 1069.495,913.371 z M 1742.76,589.612
			c-19.397-21.27-53.628-28.233-91.692-28.233c-46.899,0.00-84.933,11.644-103.19,42.277c-9.596,16.296-14.921,21.153-16.004,47.543l 65.829,0.00 
			c0.00-13.253, 2.107-18.754, 6.407-27.443c 6.056-5.032, 25.922-7.548, 46.753-7.548c 12.785,0.00, 29.374,4.389, 38.883,13.136
			c 9.509,8.777, 14.248,15.887, 14.248,32.329c0.00,21.767-8.806,16.238-26.419,23.552c-10.035,4.125-5.705,6.173-27.297,6.173l0.00,42.979 
			c 21.124,0.293, 15.711,2.341, 24.049,6.173c 14.453,6.407, 21.65,1.083, 21.65,20.568c0.00,12.639-3.686,17.437-11.059,25.366
			c-7.373,7.929-23.23,11.878-36.601,11.878c-15.36,0.00-32.124-4.886-39.351-14.629c-7.227-9.772-10.679-0.848-10.357-17.145l-60.796,0.00 
			c 0.614,16.443, 3.423,15.594, 8.455,30.398c 5.325,12.932, 13.692,24.927, 25.103,35.899c 8.514,7.782, 24.108,13.722, 35.869,17.818
			c 11.703,4.125, 26.097,6.173, 43.154,6.173c 31.656,0.00, 71.826-4.535, 91.224-20.919s 29.111-38.356, 29.111-65.946c0.00-19.544-11.293-21.328-22.85-34.757
			c-7.314-8.397-18.578-14.102-26.507-17.145c 5.939,0.00, 14.453-1.463, 25.60-11.644c 16.589-15.419, 24.927-16.325, 24.927-42.979
			C 1771.871,635.487, 1762.158,610.853, 1742.76,589.612z"  />
<glyph unicode="&#xe00a;" d="M 1812.012,1489.181c-163.752-55.676-258.399-50.556-258.399-50.556
			c-113.781,0.00-253.133,76.537-253.133,76.537c-12.961,19.515-38.971-26.01-38.971-26.01l-152.371-479.817c-16.267-35.752,0.00-45.495,0.00-45.495
			c 107.257-91.019, 293.186-105.413, 293.186-105.413c 117.292,0.00, 277.094,51.054, 277.094,51.054s 57.578,32.271, 70.656,73.669
			c 37.976,126.625, 120.481,493.041, 120.481,493.041C 1890.011,1515.162, 1812.012,1489.181, 1812.012,1489.181z M 1625.907,794.792
			c-123.524-81.247-276.685-51.99-276.685-51.99c-113.781,0.00-253.104,107.257-253.104,107.257c-12.99,19.485-39.029-26.01-39.029-26.01l-155.999-490.789
			c-16.238-35.781,0.00-45.495,0.00-45.495c 107.257-91.019, 299.037-104.682, 299.037-104.682c 117.292,0.00, 271.243,50.322, 271.243,50.322s 57.549,32.271, 70.627,73.699
			c 38.005,126.566, 142.424,474.697, 142.424,474.697C 1703.936,820.802, 1625.907,794.792, 1625.907,794.792z M 939.476,866.706
			c-107.257,91.019-278.908,135.373-278.908,135.373c-117.263,0.00-265.743-26.185-265.743-26.185s-57.549-32.271-70.656-73.669
			c-37.976-126.596-147.895-494.855-147.895-494.855c-19.515-39.00, 58.514-12.99, 58.514-12.99c 123.494,81.247, 273.028,64.805, 273.028,64.805
			c 113.781,0.00, 256.79-129.20, 256.79-129.20c 12.99-19.485, 39.00,26.01, 39.00,26.01l 135.899,465.189C 955.743,856.964, 939.476,866.706, 939.476,866.706z
			 M 428.149,1064.982c 105.238,66.619, 283.999,26.887, 283.999,26.887c 113.781,0.00, 250.675-110.182, 250.675-110.182c 12.99-19.515, 39.00,26.01, 39.00,26.01
			l 165.771,515.16c 16.296,35.781,0.00,45.524,0.00,45.524c-107.257,91.019-299.008,110.504-299.008,110.504c-186.778,3.657-271.243-56.144-271.243-56.144
			s-57.549-32.241-70.627-73.699c-37.976-126.596-157.052-471.069-157.052-471.069C 350.149,1038.972, 428.149,1064.982, 428.149,1064.982z"  />
<glyph unicode="&#xe00b;" d="M 479.261,1012.465l 108.047-133.705c 112.055,111.587, 266.591,180.575, 437.248,180.575
			c 174.08,0.00, 331.396-71.768, 443.977-187.363l 109.158,132.974c-142.599,139.557-337.832,225.602-553.136,225.602C 813.173,1230.519, 621.158,1147.575, 479.261,1012.465z
			 M 1024.527,881.803c-130.019,0.00-246.696-62.084-326.129-152.781l 122.383-111.206c 49.152,57.403, 122.149,93.74, 203.60,93.74
			c 89.761,0.00, 169.194-44.12, 217.849-111.821l 105.296,132.886C 1268.092,821.211, 1152.819,881.803, 1024.527,881.803z M 1024.614,1583.682
			c-291.781,0.00-558.021-108.251-760.071-287.013l 107.90-139.235c 171.827,157.403, 400.764,253.425, 652.142,253.425c 250.997,0.00, 479.671-95.759, 651.41-252.752
			l 110.065,137.333C 1583.865,1474.962, 1317.069,1583.682, 1024.614,1583.682z M 1024.585,533.526c-73.377,0.00-132.857-59.48-132.857-132.886
			c0.00-73.377, 59.48-132.857, 132.857-132.857c 73.406,0.00, 132.886,59.48, 132.886,132.857C 1157.471,474.017, 1097.962,533.526, 1024.585,533.526z"  />
<glyph unicode="&#xe00c;" d="M 1024.527,850.878c-130.019,0.00-246.696-57.256-326.129-147.924l 122.383-111.177
			c 49.152,57.373, 122.149,93.711, 203.60,93.711c 89.761,0.00, 169.194-31.92, 217.849-99.621l 105.296,120.686C 1268.092,795.143, 1152.79,850.878, 1024.527,850.878z
			 M 479.261,990.054l 108.047-133.705c 112.055,111.587, 266.591,180.575, 437.248,180.575c 174.08,0.00, 331.396-71.768, 443.977-187.363l 109.158,132.974
			c-142.599,139.586-337.832,225.602-553.136,225.602C 813.173,1208.108, 621.158,1125.164, 479.261,990.054z M 1024.614,1555.80
			c-291.781,0.00-558.021-108.251-760.071-287.013l 107.90-139.235c 171.827,157.403, 400.764,253.425, 652.142,253.425c 250.997,0.00, 479.671-95.759, 651.41-252.752
			l 110.065,137.333C 1583.865,1447.051, 1317.069,1555.80, 1024.614,1555.80z M 1019.992,505.761c-51.639,0.00-93.506-41.896-93.506-93.535
			c 43.886-71.153, 93.506-132.535, 93.506-132.535l 98.392,132.535C 1118.413,463.894, 1071.66,505.761, 1019.992,505.761z"  />
<glyph unicode="&#xe00d;" d="M 1762.743,1322.064c0.00,0.00-79.872,0.00-186.514,0.00l-12.99,9.04c-98.158,165.127-280.693,285.374-517.296,285.374
			c-237.422,0.00-441.315-121.271-529.203-287.568l-13.897-6.817c-54.038,0.00-166.415,0.00-166.415,0.00c-129.258,0.00-234.057-104.799-234.057-234.057l0.00-351.086 c0.00-129.258, 104.799-234.057, 234.057-234.057
			c0.00,0.00, 45.875,0.00, 160.914,0.00l 13.019-9.07c 54.243-145.613, 280.664-282.917, 517.266-282.917c 237.451,0.00, 460.80,123.728, 529.203,285.14l 13.897,6.817
			c 67.906,0.00, 111.528,0.00, 111.528,0.00c 129.258,0.00, 234.057,104.799, 234.057,234.057l0.00,351.086 C 1916.343,1217.265, 1892.001,1322.064, 1762.743,1322.064z M 803.664,1090.933l 59.451,0.00 l0.00-62.581 l-59.451,0.00 
			L 803.664,1090.933 z M 803.664,973.056l 59.451,0.00 l0.00-240.874 l-59.451,0.00 L 803.664,973.056 z M 686.607,737.653l-80.75,0.00 l-75.074,249.593l-74.84-249.593l-82.534,0.00 L 283.414,1090.933l 77.912,0.00 
			l 56.817-267.469l 68.901,267.469l 90.522,0.00 L 643.657,819.076l 57.871,271.857l 76.624,0.00 L 686.607,737.653z M 1857.829,736.922c0.00-96.929-78.614-175.543-175.543-175.543
			c0.00,0.00-1079.355-3.657-877.714,0.00c 275.485,152.342, 217.029,299.535, 233.735,448.395c 9.392,200.821, 48.391,244.005, 172.208,253.776
			c-120.686,3.657, 471.771,0.00, 471.771,0.00c 96.929,0.00, 175.543-78.614, 175.543-175.543L 1857.829,736.922 z M 1244.453,737.77l 84.67,0.00 l0.00,176.04 l 150.06,0.00 l0.00,58.895 l-150.06,0.00 l0.00,58.778 l 174.987,0.00 
			l0.00,56.466 l-259.657,0.00 L 1244.453,737.77 z M 1568.768,1029.581l 55.208,0.00 l0.00,58.339 L 1568.768,1087.92 L 1568.768,1029.581 z M 1568.768,737.77l 55.208,0.00 l0.00,231.629 L 1568.768,969.399 L 1568.768,737.77 z"  />
<glyph unicode="&#xe00e;" d="M 1682.286,1322.971l-1345.829,0.00 c-129.258,0.00-234.057-104.799-234.057-234.057l0.00-351.086 c0.00-129.258, 104.799-234.057, 234.057-234.057l 1345.829,0.00 c 129.258,0.00, 234.057,104.799, 234.057,234.057l0.00,351.086 
			C 1916.343,1218.172, 1811.544,1322.971, 1682.286,1322.971z M 803.664,1089.441l 59.451,0.00 l0.00-60.182 l-59.451,0.00 L 803.664,1089.441 z M 803.664,971.535l 59.451,0.00 l0.00-238.446 l-59.451,0.00 L 803.664,971.535 z
			 M 686.607,738.56l-80.75,0.00 l-75.074,249.593l-74.84-249.593l-82.534,0.00 L 283.414,1089.441l 77.912,0.00 l 56.817-265.04l 68.901,265.04l 90.522,0.00 L 643.657,820.012l 57.871,269.429
			l 76.624,0.00 L 686.607,738.56z M 1857.829,737.829c0.00-96.958-78.614-175.543-175.543-175.543c0.00,0.00-1079.355-3.657-877.714,0.00c 275.485,152.342, 217.029,299.535, 233.735,448.366
			c 9.392,200.85, 48.391,244.063, 172.208,253.806c-120.686,3.657, 471.771,0.00, 471.771,0.00c 96.929,0.00, 175.543-78.614, 175.543-175.543L 1857.829,737.829 z M 1244.453,738.677l 84.67,0.00 l0.00,173.612 
			l 147.632,0.00 l0.00,56.437 l-147.632,0.00 l0.00,61.235 l 177.415,0.00 l0.00,58.895 l-262.085,0.00 L 1244.453,738.677 z M 1568.768,1030.517l 55.208,0.00 l0.00,58.309 L 1568.768,1088.827 L 1568.768,1030.517 z M 1568.768,738.677l 55.208,0.00 l0.00,231.629 
			L 1568.768,970.306 L 1568.768,738.677 z"  />
<glyph unicode="&#xe00f;" d="M 1195.418,1535.993c 82.798,0.00, 149.943,67.116, 149.943,149.943c0.00,82.827-67.145,149.972-149.943,149.972
			s-149.943-67.145-149.943-149.972C 1045.475,1603.109, 1112.62,1535.993, 1195.418,1535.993z M 1550.16,1002.05l-131.657,73.143c0.00,0.00-153.60,102.40-146.286,234.057
			c0.00,0.00-26.507,145.379-158.164,189.264c0.00,0.00-65.829,51.20-146.286,21.943l-346.522-160.007c0.00,0.00-50.293-29.257-50.293-65.829s0.00-344.678,0.00-344.678
			s-9.128-65.829, 35.664-65.829c0.00,0.00, 76.80,25.60, 76.80,47.543l 3.657,260.564c0.00,0.00, 9.128,21.036, 65.829,57.607l 58.514,44.793c0.00,0.00, 65.829,43.886, 51.20-14.629
			c0.00,0.00-116.122-171.886-116.122-277.943l0.00-263.314 l-240.464-552.229c0.00,0.00-73.143-113.371, 43.886-149.943c0.00,0.00, 78.643-11.878, 115.215,61.264l 212.114,406.85
			c0.00,0.00, 47.543,119.779, 87.771,79.55l 149.943-167.322c0.00,0.00, 40.229-87.771, 40.229-321.829c0.00,0.00-14.629-58.514, 95.086-58.514c0.00,0.00, 78.643-3.657, 78.643,54.857l0.00,215.771 
			c0.00,0.00-12.815,248.686-232.243,497.371l0.00,73.143 l 36.571,204.80c0.00,0.00, 43.886,51.20, 73.143,7.314c0.00,0.00-7.314-62.171, 117.029-128.00l 146.286-54.857c0.00,0.00, 80.457-29.257, 95.086,14.629
			C 1564.789,921.593, 1594.046,987.421, 1550.16,1002.05z"  />
<glyph unicode="&#xe010;" d="M 1856.015,1557.029L 570.514,1557.029 l0.00-1287.314 l 1285.50,0.00 c 32.30,0.00, 58.514,26.214, 58.514,58.514l0.00,1170.286 
			C 1914.529,1530.814, 1888.315,1557.029, 1856.015,1557.029z M 1738.986,445.257l-1111.771,0.00 l0.00,936.229 l 1111.771,0.00 L 1738.986,445.257 z M 102.40,1498.514l0.00-1170.286 c0.00-32.30, 24.371-58.514, 56.70-58.514l 349.272,0.00 l 3.657,1287.314
			L 159.10,1557.029 C 126.771,1557.029, 102.40,1530.814, 102.40,1498.514z M 159.10,1264.457l 175.543,0.00 l0.00-58.514 l-175.543,0.00 L 159.10,1264.457 z M 159.10,1147.429l 175.543,0.00 l0.00-58.514 l-175.543,0.00 L 159.10,1147.429 z M 334.643,445.257l-175.543,0.00 l0.00,58.514 l 175.543,0.00 L 334.643,445.257 z
			 M 334.643,562.286l-175.543,0.00 l0.00,58.514 l 175.543,0.00 L 334.643,562.286 z M 334.643,679.314l-175.543,0.00 l0.00,58.514 l 175.543,0.00 L 334.643,679.314 z M 455.30,911.557c0.00-65.653-53.219-118.843-118.843-118.843
			s-118.843,53.189-118.843,118.843S 270.804,1030.40, 336.457,1030.40S 455.30,977.211, 455.30,911.557z M 334.643,1322.971l-175.543,0.00 l0.00,58.514 l 175.543,0.00 L 334.643,1322.971 z M 335.55,856.671
			c 31.803,0.00, 57.607,25.776, 57.607,57.607S 367.353,971.886, 335.55,971.886S 277.943,946.11, 277.943,914.278S 303.718,856.671, 335.55,856.671z M 1680.472,1322.971l-994.743,0.00 
			l0.00-819.20 l 994.743,0.00 L 1680.472,1322.971 z"  />
<glyph unicode="&#xe011;" d="M 304.45,824.693c0.00-33.353, 27.004-60.328, 60.328-60.328s 60.328,27.004, 60.328,60.328
			c0.00,33.324-27.004,60.328-60.328,60.328S 304.45,857.988, 304.45,824.693z M 132.564,1292.807l0.00-936.229 c0.00-32.30, 26.214-56.70, 58.514-56.70l 347.429,0.00 
			l 1.814,1051.443L 191.078,1351.322 C 158.779,1351.322, 132.564,1325.107, 132.564,1292.807z M 191.078,1058.75l 175.543,0.00 l0.00-58.514 l-175.543,0.00 L 191.078,1058.75 z M 366.621,473.607l-175.543,0.00 l0.00,58.514 l 175.543,0.00 L 366.621,473.607 z
			 M 366.621,590.636l-175.543,0.00 l0.00,58.514 l 175.543,0.00 L 366.621,590.636 z M 483.65,822.85c0.00-65.624-53.219-118.843-118.843-118.843s-118.843,53.219-118.843,118.843
			c0.00,65.653, 53.219,118.843, 118.843,118.843S 483.65,888.503, 483.65,822.85z M 366.621,1117.264l-175.543,0.00 l0.00,58.514 l 175.543,0.00 L 366.621,1117.264 z M 1312.973,773.786
			c0.00,0.00, 101.435,72.85, 180.048-22.235l 146.286-219.429l 10.971,0.00 l0.00,585.143 L 717.707,1117.264 l0.00-581.486 l 601.585,0.00 l-34.523,61.323C 1284.798,597.072, 1208.73,713.428, 1312.973,773.786z
			 M 1825.821,1351.322l-54.857,0.00 c0.00,0.00-235.023,106.028-235.666,166.502c-19.836,19.046, 3.54,28.087, 3.54,28.087s 77.034,55.091, 98.977,223.32l-38.736-4.652
			c0.00,0.00-3.599-81.569-65.77-176.625c0.00,0.00-70.188-26.068-50.235-53.014c 29.082-109.012, 225.719-183.589, 225.719-183.589L 600.678,1351.351 l0.00-1049.60 l 886.843,0.00 
			l-126.157,171.886L 655.536,473.637 L 655.536,1179.436 l 1056.914,0.00 l0.00-705.829 l-27.443,0.00 l 128.00-175.543l 12.815,0.00 c 32.30,0.00, 58.514,26.214, 58.514,58.514l0.00,936.229 
			C 1884.336,1325.107, 1858.15,1351.322, 1825.821,1351.322z M 1448.638,686.746c-16.179,27.999-51.931,37.566-79.931,21.416
			c-27.999-16.179-37.566-51.931-21.416-79.931l 371.215-541.491c 16.179-27.999, 51.931-37.595, 79.931-21.416s 37.566,51.931, 21.416,79.931L 1448.638,686.746
			z"  />
<glyph unicode="&#xe012;" d="M 1620.582,682.737l 1.492,466.242l-117.643-3.657l-280.752-464.428l 108.69,0.00 l 50.293,87.186l 151.376,0.00 
			l-0.614-85.372L 1620.582,682.708 z M 1412.623,853.95l 126.742,207.375l-4.974-207.375L 1412.623,853.95 z M 666.565,680.923l 108.222,0.00 l 145.935,466.242l-107.93,0.00 L 666.565,680.923z
			 M 1028.213,762.024c-87.537,15.857-117.848,32.417-117.848,32.417l-41.896-58.748c0.00,0.00, 36.279-55.94, 153.073-55.94c 52.195,0.00, 113.02-8.748, 142.248,20.07
			s 61.557,64.132, 63.985,124.284c0.00,42.072-20.802,74.459-40.404,95.408c-32.417,35.138-123.963,54.623-125.952,95.173c0.00,38.034, 27.794,55.442, 119.311,55.442
			c 38.795,0.00, 62.171-28.584, 62.171-28.584l 68.988,77.239c0.00,0.00-89.381,30.72-138.503,30.72c-48.391,0.00-142.629-12.785-168.17-38.356
			c-104.653-70.042-22.469-161.938-29.082-149.124c 176.216-118.199, 145.525-159.598, 145.525-159.598S 1108.816,762.024, 1028.213,762.024z M 512.614,838.853
			L 459.483,1147.136l-208.516,1.843l 9.245-40.199c0.00,0.00, 99.942-17.291, 100.908-22.996c 21.211-125.513, 63.108-404.89, 63.108-404.89l 87.128,0.00 l 230.868,466.242
			l-72.616,0.00 L 512.614,838.853z M 1857.829,1557.029l-1696.914,0.00 c-32.30,0.00-58.514-26.214-58.514-58.514l0.00-1170.286 c0.00-32.30, 26.214-58.514, 58.514-58.514l 1696.914,0.00 c 32.30,0.00, 58.514,26.214, 58.514,58.514l0.00,1170.286 
			C 1916.343,1530.814, 1890.128,1557.029, 1857.829,1557.029z M 1857.829,386.743c0.00-32.329-26.214-58.514-58.514-58.514l-1579.886,0.00 c-32.30,0.00-58.514,26.185-58.514,58.514l0.00,1053.257 c0.00,32.329, 26.214,58.514, 58.514,58.514l 1579.886,0.00 
			c 32.30,0.00, 58.514-26.214, 58.514-58.514L 1857.829,386.743 z M 1740.80,1440.00l-1462.857,0.00 c-32.30,0.00-58.514-26.214-58.514-58.514l0.00-175.543 l 1579.886,0.00 l0.00,175.543 C 1799.314,1413.786, 1773.10,1440.00, 1740.80,1440.00z M 219.429,445.257
			c0.00-32.329, 26.214-58.514, 58.514-58.514l 1462.857,0.00 c 32.30,0.00, 58.514,26.185, 58.514,58.514l0.00,175.543 l-1579.886,0.00 L 219.429,445.257 z"  />
<glyph unicode="&#xe013;" d="M 1856.629,1557.029L 162.143,1557.029 c-32.30,0.00-58.514-26.185-58.514-58.514l0.00-292.571 l 1811.485,0.00 l0.00,292.571 
			C 1915.114,1530.814, 1888.90,1557.029, 1856.629,1557.029z M 513.843,838.853L 460.712,1147.136L 252.197,1148.979l 9.245-40.199c0.00,0.00, 95.056-27.063, 96.022-32.739
			c 21.211-125.513, 63.108-395.147, 63.108-395.147l 92.014,0.00 l 230.868,466.242l-72.616,0.00 L 513.843,838.853z M 667.794,680.923l 108.222,0.00 l 145.905,466.242l-107.90,0.00 
			L 667.794,680.923z M 1029.442,744.967c-87.537,15.828-117.848,49.474-117.848,49.474l-41.896-58.748c0.00,0.00, 36.279-53.482, 153.073-53.482
			c 52.165,0.00, 112.991-11.205, 142.248,17.613c 29.228,28.789, 63.985,83.646, 63.985,124.284c0.00,42.072-20.802,74.459-40.433,95.408
			c-32.417,35.138-123.933,54.623-125.923,95.173c0.00,38.034, 27.794,48.128, 119.311,48.128c 38.795,0.00, 62.171-28.584, 62.171-28.584l 68.988,84.553
			c0.00,0.00-89.41,30.72-138.533,30.72c-48.362,0.00-135.314-12.756-160.827-38.327c-104.682-70.042-22.469-161.938-29.082-149.124
			c 176.216-118.199, 133.325-176.684, 133.325-176.684S 1075.902,744.967, 1029.442,744.967z M 1621.811,682.737l 1.492,466.242l-117.643-3.657l-280.752-464.399l 108.69,0.00 
			l 50.293,87.186l 151.376,0.00 l-0.614-85.372L 1621.811,682.737 z M 1533.191,853.95l-119.34,0.00 l 124.284,207.375L 1533.191,853.95z M 103.629,328.229c0.00-32.329, 26.214-58.514, 58.514-58.514
			l 1694.486,0.00 c 32.30,0.00, 58.485,26.185, 58.485,58.514l0.00,292.571 L 103.629,620.80 L 103.629,328.229 z"  />
<glyph unicode="&#xe014;" d="M 589.414,677.822c0.00,0.00-27.472-39.058-16.325-61.44c 11.176-22.323, 25.629-29.784, 47.982-26.039
			c 22.352,3.716, 59.568,35.343, 65.156,50.264c 5.588,14.892, 14.892,68.871-22.352,68.871S 617.384,703.92, 589.414,677.822z M 1942.908,408.159
			c0.00,0.00-7.548,148.304-179.346,116.707c-171.827-31.568-132.389-244.502-144.267-262.261c-11.849-17.788-84.816-19.778-102.634-27.648
			c-17.73-7.929-80.955-7.929-102.693-3.979c-21.709,3.979-23.698,29.637-7.899,29.637s-7.022-5.91, 101.61,43.418
			c 79.345,38.415, 64.044,140.229, 64.044,140.229s 2.194,103.717-136.016,82.008c-138.269-21.709-160.856-204.449-162.816-232.097
			c-1.96-27.648-30.72-47.397-52.458-59.216c-21.709-11.878-17.759,39.497-17.759,39.497s 17.759,90.814, 29.637,114.512
			c 11.849,23.728-1.96,98.392-23.698,124.05c-21.709,25.688-61.235,9.889-80.984,1.96c-19.749-7.899-78.994-82.564-88.854-92.423
			c-9.889-9.889-17.788,1.96-15.828,21.709c 1.989,19.778-31.568,68.754-51.346,78.643c-19.749,9.889-43.418,0.00-63.166-9.889
			c-19.778-9.889-77.034-76.624-88.883-88.474s-17.759,5.91-13.839,25.688c 3.979,19.749, 1.96,59.86-17.759,75.659
			c-19.749,15.77-43.447,0.965-51.346-2.984s-69.105-92.453-73.055-116.151c-3.979-23.698, 15.799-11.849, 35.547,0.00s 15.799-39.526, 9.86-92.833
			c-5.91-53.307-45.407-78.00-64.161-81.949c-31.598-4.944-36.542,38.473-36.542,38.473s 3.979,45.466, 7.929,57.285
			c 3.95,11.849, 21.709,84.904, 27.648,128.38c 5.91,43.418-61.235,75.688-61.235,75.688s-45.115-19.544-73.757-92.628
			c-11.469-22.85-27.911,68.286-36.864,75.015c-25.659,29.608-56.291,16.472-77.034,2.662c-10.854-3.979-52.312-61.733-69.105-81.481
			c-16.764-19.749, 29.637-18.783, 38.502-15.799s 37.508-0.965, 15.799-52.341c-21.709-51.317-54.301-83.909-64.161-97.748
			c-9.889-13.839-25.688-1.96-31.598,30.603c-5.939,32.592-36.542,213.519-48.391,221.418c-14.804,26.624-58.251,0.965-58.251,0.965
			c-8.894-6.905-61.411-85.138-73.26-104.887c-11.82-19.778, 7.929-31.568, 9.889-41.457s 23.698,22.674, 34.582,28.643
			c 10.854,5.881, 16.764,0.00, 18.754-21.709c 1.96-21.738, 54.477-212.114, 75.22-245.701c 20.743-33.558, 71.095,0.00, 71.095,0.00s 139.235,178.586, 174.811,242.747
			c 4.272,7.753, 7.548,15.243, 9.889,22.382c 0.644,1.989, 0.059,2.955-0.819,3.452c-6.671-0.848-2.282,1.317,0.00,0.00
			c 2.604,0.351, 6.671,1.053, 13.605,2.809c 31.598,7.899, 29.637-53.307, 19.778-73.055c-9.889-19.749-57.49-78.994-63.429-112.611
			c-5.91-33.529, 11.849-93.594, 78.994-101.522s 128.585,79.813, 128.585,79.813s-1.96,23.728, 25.688-15.799c 27.648-39.497, 88.854-62.025, 112.581-62.025
			c 23.698,0.00-13.839,50.205-21.709,83.763c-7.929,33.529, 11.82,71.095, 19.749,104.653c 7.899,33.558, 58.368,75.045, 91.955,73.055
			c 33.529-1.931, 31.568-51.317, 9.86-67.145c-21.709-15.799-45.349-86.894-45.349-86.894c-3.95-102.693, 107.461-105.443, 131.131-107.461
			c 23.698-1.96-1.083,34.406-10.971,42.277c-9.86,7.929-11.849,59.246-1.96,104.653c 9.889,45.466, 68.549,94.588, 108.017,98.538
			s 3.423-47.192-2.487-55.091s-17.759-21.709-33.558-94.793c-15.799-73.055, 87.128-97.573, 108.837-99.533c 21.738-1.96, 90.843,65.975, 90.843,65.975
			s 15.799,29.637, 29.637,3.979c 13.809-25.717, 69.105-66.004, 138.24-66.004s 146.139,60.065, 163.928,75.864s 47.309,25.688, 59.158,0.00
			c 11.849-25.659, 31.656-75.571, 142.248-75.571c 128.878-7.314, 143.828,165.829, 149.738,183.589C 1946.887,325.186, 1942.908,408.159, 1942.908,408.159z
			 M 1378.45,298.152c-7.899,3.95,0.00,31.598, 12.815,57.285c 12.844,25.659, 68.432,65.156, 68.432,65.156c 60.24,3.979, 8.602-72.06-15.097-96.753
			C 1420.902,299.147, 1386.35,294.203, 1378.45,298.152z M 1822.31,264.068c-14.307-22.206-34.553-35.196-61.703-33.236
			c-27.151,1.96-38.005,47.865-36.016,78.497s 25.161,77.707, 25.161,77.707s 18.754,25.659, 36.016,32.095s 38.034,0.965, 49.883-10.357
			c 11.82-11.381, 12.815-27.648, 13.809-51.814C 1850.456,332.705, 1836.617,286.274, 1822.31,264.068z M 579.847,1416.653
			c 28.731,15.682, 44.412,0.00, 49.62-57.432c 5.237-57.461, 182.769-522.24, 237.597-611.006c 54.857-88.766, 188.006,0.00, 188.006,0.00S 1423.272,1181.63, 1517.275,1351.38
			s-2.633,277.328-44.412,308.634c-67.877,78.321-148.831,33.938-203.659-2.633c-28.731-10.416-138.386-117.321-182.769-169.545
			c-44.412-52.224, 78.321-49.591, 101.815-41.75c 23.493,7.812, 99.24,7.109, 41.779-128.673c-57.461-135.782-143.594-239.002-169.75-275.544
			c-26.127-36.571-67.877,11.849-83.529,98.011c-15.682,86.162-96.636,508.987-127.941,529.876c-39.175,70.539-154.068,2.633-154.068,2.633
			c-23.523-18.286-201.055-169.545-232.389-221.798c-31.334-52.224, 20.89-98.187, 26.127-124.314C 493.714,1300.209, 551.146,1401.00, 579.847,1416.653z"  />
<glyph unicode="&#xe015;" d="M 162.143,856.554l 1723.743,0.00 c 32.30,0.00, 58.485,26.214, 58.485,58.514L 1944.371,1673.296 
			c0.00,32.30-26.214,58.514-58.485,58.514L 162.143,1731.811 c-32.30,0.00-58.514-26.214-58.514-58.514l0.00-758.257 C 103.629,882.739, 129.843,856.554, 162.143,856.554z M 1072.421,1559.515
			c 145.876,0.00, 259.306-115.829, 259.306-261.734c0.00-145.905-113.43-269.078-259.306-269.078c-145.905,0.00-269.078,123.173-269.078,269.078
			C 803.343,1443.686, 926.515,1559.515, 1072.421,1559.515z M 1052.35,1137.979l 159.334,145.671c 12.551,12.639, 0.205,14.629, 0.205,14.629l-158.866,141.575
			c-13.985,13.605-13.839-13.195-13.839-13.195l0.00-275.602 C 1039.214,1124.403, 1052.35,1137.979, 1052.35,1137.979z M 589.093,703.803
			c0.00,0.00-29.52-38.707-18.461-60.826s 27.648-29.491, 49.796-25.834c 22.118,3.716, 58.982,35.021, 64.512,49.766s 14.746,68.228-22.118,68.228
			C 625.957,735.137, 616.711,729.607, 589.093,703.803z M 1945.366,437.416c0.00,0.00-10.006,148.304-181.833,116.707c-171.798-31.568-132.359-244.502-144.238-262.261
			c-11.82-17.788-84.816-19.778-102.605-27.648c-17.788-7.929-80.984-7.929-102.722-3.979c-21.709,3.979-23.698,29.637-7.899,29.637
			s-7.022-5.91, 101.61,43.418c 79.345,38.415, 64.044,140.229, 64.044,140.229s 2.194,103.717-136.016,82.008c-138.269-21.709-160.856-204.449-162.816-232.097
			c-1.96-27.648-30.72-47.397-52.458-59.216c-21.709-11.878-17.759,39.497-17.759,39.497s 17.759,90.814, 29.637,114.512
			c 11.849,23.728-1.96,98.392-23.698,124.05c-21.738,25.688-61.235,9.889-80.984,1.96c-19.749-7.899-78.994-82.564-88.854-92.423
			c-9.889-9.889-17.788,1.96-15.828,21.709c 1.989,19.778-31.598,68.754-51.346,78.643s-43.418,0.00-63.166-9.889
			c-19.778-9.889-77.034-76.624-88.883-88.474s-17.759,5.91-13.839,25.688c 3.979,19.749, 1.96,59.86-17.759,75.659
			c-19.749,15.77-43.418,0.965-51.346-2.984c-7.899-3.95-69.105-92.453-73.055-116.151c-3.979-23.698, 15.799-11.849, 35.547,0.00s 15.799-39.526, 9.86-92.833
			c-5.91-53.307-45.407-78.00-64.161-81.949c-31.598-4.944-36.542,38.473-36.542,38.473s 3.979,45.466, 7.929,57.285
			c 3.95,11.849, 21.709,84.904, 27.648,128.38c 5.91,43.418-61.235,75.688-61.235,75.688s-45.115-19.544-73.757-92.628
			c-11.44-22.85-27.882,68.286-36.835,75.015c-25.659,29.608-56.291,16.472-77.034,2.662c-10.854-3.979-52.312-61.733-69.105-81.481
			c-16.764-19.749, 29.637-18.783, 38.502-15.799s 37.508-0.965, 15.799-52.341c-21.709-51.317-54.301-83.909-64.161-97.748
			c-9.889-13.839-25.688-1.96-31.598,30.603c-5.939,32.592-36.542,213.519-48.391,221.418c-14.804,26.624-58.251,0.965-58.251,0.965
			c-8.894-6.905-61.411-85.138-73.26-104.887c-11.82-19.778, 7.929-31.568, 9.889-41.457s 23.698,22.674, 34.582,28.643
			c 10.854,5.881, 16.764,0.00, 18.754-21.709c 1.96-21.738, 54.477-212.114, 75.22-245.701c 20.743-33.558, 71.095,0.00, 71.095,0.00s 139.264,178.586, 174.782,242.747
			c 4.301,7.753, 7.578,15.243, 9.918,22.382c 0.644,1.989, 0.059,2.955-0.819,3.452c-6.671-0.848-2.282,1.317,0.00,0.00
			c 2.604,0.322, 6.671,1.053, 13.605,2.809c 31.598,7.899, 29.637-53.307, 19.778-73.055c-9.889-19.749-57.49-78.994-63.429-112.611
			c-5.91-33.529, 11.849-91.136, 78.994-99.094c 67.145-7.899, 128.585,77.385, 128.585,77.385s-1.96,23.728, 25.688-15.799
			c 27.648-39.497, 88.854-59.568, 112.581-59.568c 23.698,0.00-13.839,47.748-21.709,81.306c-7.929,33.529, 11.82,71.095, 19.749,104.653
			c 7.899,33.558, 58.368,75.045, 91.926,73.055c 33.587-1.931, 31.598-51.317, 9.889-67.145c-21.709-15.799-45.349-86.894-45.349-86.894
			c-3.95-102.693, 107.461-105.443, 131.131-107.461c 23.698-1.96-1.083,34.406-10.971,42.277c-9.86,7.929-11.849,59.246-1.96,104.653
			c 9.889,45.466, 68.52,94.588, 108.017,98.538c 39.497,3.95, 3.423-47.192-2.487-55.091s-17.759-21.709-33.558-94.793
			c-15.799-73.055, 87.128-92.687, 108.837-94.647s 90.843,61.089, 90.843,61.089s 15.799,29.637, 29.637,3.979c 13.809-25.717, 69.105-66.004, 138.24-66.004
			s 146.139,60.065, 163.928,75.864s 47.309,25.688, 59.158,0.00c 11.849-25.659, 31.656-75.571, 142.248-75.571c 128.878-7.314, 146.256,165.829, 152.196,183.589
			C 1949.316,354.443, 1945.366,437.416, 1945.366,437.416z M 1378.45,327.409c-7.899,3.95,0.00,31.598, 12.844,57.285c 12.815,25.659, 68.403,65.156, 68.403,65.156
			c 60.24,3.979, 8.602-72.06-15.097-96.753C 1420.902,328.404, 1386.379,323.46, 1378.45,327.409z M 1822.31,293.325
			c-14.307-22.206-34.553-35.196-61.674-33.236c-27.18,1.96-38.034,47.865-36.045,78.497s 25.161,77.707, 25.161,77.707s 18.754,25.659, 36.016,32.095
			s 38.034,0.965, 49.883-10.357c 11.82-11.381, 12.815-27.648, 13.809-51.814C 1850.456,361.962, 1836.617,315.531, 1822.31,293.325z"  />
<glyph unicode="&#xe016;" d="M 622.27,1114.514c 21.855,3.657, 58.309,32.358, 63.781,46.958
			c 5.471,14.599, 14.57,67.408-21.855,67.408c-36.454,0.00-45.553-5.471-72.88-30.983c0.00,0.00-29.14-38.268-18.227-60.123
			C 584.002,1115.889, 600.386,1110.857, 622.27,1114.514z M 1945.366,934.758c0.00,0.00-10.006,150.762-181.833,119.164c-171.798-31.598-132.359-246.93-144.238-264.748
			c-11.849-17.759-84.846-19.719-102.634-27.619s-80.984-7.929-102.693-3.95c-21.709,3.95-23.698,29.637-7.899,29.637s-7.022-5.939, 101.61,43.418
			c 79.345,38.385, 64.044,140.20, 64.044,140.20s 2.194,106.174-136.046,84.436c-138.24-21.738-160.827-206.877-162.787-234.525
			c-1.96-27.648-30.72-47.397-52.458-59.246c-21.709-11.849-17.759,39.526-17.759,39.526s 17.759,90.814, 29.637,114.542
			c 11.849,23.728-1.96,100.82-23.698,126.479s-61.235,9.86-80.984,1.96s-78.994-85.021-88.883-94.881c-9.86-9.86-17.759,1.96-15.799,21.709
			c 1.989,19.749-31.568,71.212-51.346,81.072c-19.749,9.889-43.418,0.00-63.166-9.86c-19.778-9.86-77.034-79.082-88.883-90.96
			c-11.849-11.82-17.759,5.939-13.809,25.688c 3.92,19.719, 1.931,62.288-17.788,78.087c-19.749,15.828-43.447,0.995-51.346-2.955
			s-69.105-94.881-73.055-118.579c-3.979-23.698, 15.799-11.849, 35.547,0.00s 15.799-39.497, 9.86-92.804c-5.91-53.307-45.407-78.00-64.161-81.949
			c-31.598-4.974-36.542,38.473-36.542,38.473s 3.979,45.436, 7.929,57.285c 3.95,11.82, 21.709,84.933, 27.619,128.38
			c 5.939,43.418-61.206,78.087-61.206,78.087s-45.115-21.972-73.757-95.056c-11.469-22.879-27.911,70.715-36.864,77.444
			c-25.659,29.637-56.291,14.073-77.034,0.234c-10.854-3.95-52.312-61.703-69.105-81.481c-16.764-19.749, 29.637-18.783, 38.502-15.799
			c 8.894,2.955, 37.508-0.995, 15.799-52.341s-54.301-83.939-64.19-97.748c-9.86-13.839-25.659-1.96-31.568,30.603
			c-5.939,32.592-36.542,213.489-48.391,221.389c-14.804,26.683-58.251,0.995-58.251,0.995c-8.894-6.905-61.411-85.138-73.26-104.887
			c-11.82-19.749, 7.929-31.598, 9.889-41.457c 1.96-9.86, 23.698,22.704, 34.553,28.643c 10.884,5.91, 16.794,0.00, 18.783-21.709
			c 1.96-21.767, 54.477-209.686, 75.22-243.244c 20.743-33.587, 71.095,0.00, 71.095,0.00s 139.235,176.099, 174.782,240.26c 4.301,7.782, 7.578,15.243, 9.918,22.382
			c 0.644,1.989, 0.059,2.955-0.819,3.452c-6.671-0.848-2.282,1.317,0.00,0.00c 2.604,0.322, 6.671,1.083, 13.605,2.809
			c 31.598,7.899, 29.637-53.307, 19.778-73.084c-9.889-19.749-57.52-78.994-63.429-112.581s 11.849-91.136, 78.994-99.094
			c 67.145-7.899, 128.585,77.385, 128.585,77.385s-1.96,23.728, 25.688-15.799c 27.648-39.497, 88.854-59.568, 112.581-59.568c 23.698,0.00-13.839,47.718-21.738,81.306
			c-7.899,33.529, 11.849,71.095, 19.749,104.653c 7.929,33.558, 58.397,75.015, 91.984,73.084c 33.558-1.96, 31.568-51.346, 9.86-67.145
			s-45.349-86.894-45.349-86.894c-3.95-102.722, 107.461-103.014, 131.131-105.004c 23.698-1.989-1.083,31.949-10.971,39.819s-11.849,59.246-1.96,104.653
			c 9.889,45.436, 68.549,94.588, 108.017,98.538c 39.526,3.95, 3.423-47.192-2.487-55.091s-17.759-21.709-33.558-94.793
			c-15.799-73.055, 87.128-95.144, 108.837-97.075c 21.738-1.989, 90.843,63.517, 90.843,63.517s 15.799,29.637, 29.608,3.95
			c 13.839-25.688, 69.135-65.975, 138.269-65.975s 146.139,60.065, 163.928,75.835c 17.759,15.828, 47.309,25.717, 59.158,0.00
			c 11.849-25.659, 31.656-75.542, 142.248-75.542c 128.878-7.314, 146.256,165.829, 152.196,183.589C 1949.316,851.814, 1945.366,934.758, 1945.366,934.758z
			 M 1378.45,824.781c-7.899,3.95,0.00,31.598, 12.815,57.285c 12.844,25.659, 68.432,65.126, 68.432,65.126c 60.24,3.95, 8.602-72.031-15.097-96.724
			C 1420.902,825.746, 1386.379,820.831, 1378.45,824.781z M 1822.31,790.696c-14.307-22.235-34.553-35.196-61.703-33.236
			c-27.151,1.96-38.005,47.865-36.016,78.497s 25.161,77.678, 25.161,77.678s 18.754,25.688, 36.016,32.124s 38.005,0.965, 49.854-10.357
			c 11.849-11.381, 12.815-27.648, 13.839-51.844C 1850.456,859.333, 1836.617,812.902, 1822.31,790.696z"  />
<glyph unicode="&#xe017;" d="M 559.543,1579.44c0.00,0.00, 160.914,92.657, 215.771-6.115c 43.886-29.228, 157.257-637.542, 179.20-758.228
	s 80.457-164.571, 117.029-113.371S 1228.80,873.611, 1309.257,1063.753c 80.457,190.171-25.60,214.572-58.514,203.60s-204.80-14.629-142.629,58.514s 215.771,204.80, 256.00,219.429
	c 76.80,51.20, 190.171,118.257, 285.257,8.543c 58.514-43.886, 193.829-204.80, 62.171-442.514C 1579.886,873.611, 1064.229,266.525, 1064.229,266.525s-186.514-124.372-263.314,0.00
	C 724.114,390.868, 475.429,1041.81, 468.114,1122.267c-7.314,80.486-29.257,102.40-69.486,80.486C 358.40,1180.782, 277.943,1060.125, 270.629,1096.697S 190.171,1177.154, 234.057,1250.267
	C 277.943,1323.44, 526.629,1553.81, 559.543,1579.44z"  />
<glyph unicode="&#xe018;" d="M 1654.257,1670.839l-1287.314,0.00 c-64.658,0.00-117.029-52.40-117.029-117.029l0.00-1287.314 c0.00-64.629, 52.37-112.172, 117.029-112.172l 1287.314,0.00 
			c 64.629,0.00, 114.571,47.543, 114.571,112.172l0.00,1287.314 C 1768.828,1618.439, 1718.886,1670.839, 1654.257,1670.839z M 1642.993,1029.522
			C 1528.218,822.294, 1078.711,293.061, 1078.711,293.061s-162.611-108.368-229.552,0.00c-66.97,108.398-283.736,680.784-290.143,750.885
			c-6.378,70.159-25.483,89.293-60.562,70.159c-35.05-19.134-100.323-114.60-106.672-82.71c-6.407,31.861-70.129,70.129-31.89,133.91
			s 250.178,247.925, 278.85,270.219c0.00,0.00, 140.288,82.885, 188.094-3.189c 38.268-25.512, 137.128-560.742, 156.233-665.951c 19.134-105.209, 70.129-143.448, 102.02-98.86
			c 31.89,44.646, 137.099,154.741, 207.228,320.541s-22.323,176.099-51.024,166.502c-28.672-9.538-178.527-15.184-124.314,48.596s 188.094,196.169, 223.144,208.925
			c 66.97,44.646, 165.80,98.831, 248.686,3.189C 1639.804,1377.009, 1757.769,1236.751, 1642.993,1029.522z"  />
<glyph unicode="&#xe019;" d="M 1448.229,1674.057c0.00,0.00-69.544,61.411-117.087,58.982L 691.463,1732.63c0.00,0.00-50.235-1.902-120.949-56.759
			c0.00,0.00-409.60-229.756-409.60-294.385l0.00-1170.315 c0.00-64.60, 52.40-116.999, 117.029-116.999l 1462.857,0.00 c 64.629,0.00, 117.029,52.40, 117.029,116.999L 1857.829,1381.486 C 1857.829,1446.115, 1448.229,1674.057, 1448.229,1674.057z
			 M 1740.80,269.714c0.00-32.329-26.214-58.514-58.514-58.514l-1345.829,0.00 c-32.30,0.00-58.514,26.185-58.514,58.514l0.00,1053.257 c0.00,32.329, 26.214,58.514, 58.514,58.514l 1345.829,0.00 c 59.129,0.00, 58.514-58.514, 58.514-58.514L 1740.80,269.714 z M 336.457,269.714l 1345.829,0.00 l0.00,1053.257 
			l-1345.829,0.00 L 336.457,269.714 z M 938.774,526.182l 188.211,98.743l 196.14-88.678C 1149.484,335.016, 938.774,526.182, 938.774,526.182z M 1212.357,971.886
			c 197.486-82.30, 177.357-290.757, 177.357-290.757l-177.357,117.029L 1212.357,971.886 z M 1040.443,971.886l0.00-173.729 l-177.357-117.029C 863.086,681.128, 842.957,889.615, 1040.443,971.886z
			 M 733.535,558.336l 346.873,175.543L 1097.143,767.086l0.00,351.086 c0.00,16.15, 13.078,29.257, 29.257,29.257s 29.257-13.107, 29.257-29.257l0.00-351.086 l 16.735-33.207l 346.843-175.543
			c 14.014-8.046, 18.812-25.951, 10.708-39.936s-25.98-18.812-39.965-10.708l-346.843,175.543l-33.499,0.00 l-346.873-175.543c-13.985-8.075-31.89-3.277-39.965,10.708
			C 714.752,532.414, 719.521,550.29, 733.535,558.336z M 394.971,1030.40c0.00,32.30, 26.214,58.514, 58.514,58.514s 58.514-26.214, 58.514-58.514l0.00-526.629 c0.00-32.30-26.214-58.514-58.514-58.514s-58.514,26.214-58.514,58.514L 394.971,1030.40 
			z"  />
<glyph unicode="&#xe01a;" d="M 1454.49,1152.08c-8.543,9.596-20.012,14.395-34.406,14.395
			c-27.736,0.00-51.61-17.262-71.592-51.814c-20.012-34.523-29.989-67.935-29.989-100.206c0.00-19.456, 4.476-38.853, 13.40-50.849s 21.533-17.993, 37.80-17.993
			c 28.555,0.00, 51.902,25.337, 70.188,68.667c 18.286,43.33, 27.443,77.414, 27.443,102.224C 1467.304,1130.635, 1463.033,1142.484, 1454.49,1152.08z M 1799.314,1530.20
			l-1579.886,0.00 c-32.30,0.00-58.514-26.214-58.514-58.514l0.00-1111.771 c0.00-32.30, 26.214-58.485, 58.514-58.485l 292.571,0.00 l0.00,58.485 c-32.30,0.00-58.514,26.214-58.514,58.544c0.00,32.30, 26.214,58.485, 58.514,58.485l 117.029,0.00 
			c 32.30,0.00, 58.514-26.214, 58.514-58.485c0.00-32.329-26.214-58.544-58.514-58.544l0.00-58.485 l 760.686,0.00 l0.00,58.485 c-32.30,0.00-58.514,26.214-58.514,58.544c0.00,32.30, 26.214,58.485, 58.514,58.485l 117.029,0.00 
			c 32.30,0.00, 58.514-26.214, 58.514-58.485c0.00-32.329-26.214-58.544-58.514-58.544l0.00-58.485 l 292.571,0.00 c 32.30,0.00, 58.514,26.185, 58.514,58.485l0.00,1111.771 
			C 1857.829,1504.015, 1831.614,1530.20, 1799.314,1530.20z M 394.445,766.091c0.00,0.00-4.798,54.711, 20.129,86.923c 14.395,13.751, 22.177,50.322, 98.45,61.557
			s 54.36,75.63, 56.876,74.372c 2.487-1.229-0.614,40.082-0.614,40.082s-57.549,42.364-56.934,90.492c 0.614,48.157,0.00,69.398,0.00,69.398
			s 10.064,114.191, 88.035,114.191l 60.357-21.094c 70.071,0.00, 81.072-93.125, 81.072-93.125l0.00-76.42 c0.00,0.00-13.224-54.916-57.139-79.521
			c0.00,0.00-3.131-43.154-0.614-41.896c 2.487,1.229-1.258-65.243, 42.072-76.507c 76.244-11.264, 97.221-46.519, 111.587-60.27
			c 14.395-13.78, 21.475-88.24, 21.475-88.24L 394.445,766.032 z M 1425.671,921.30c-22.645-20.539-49.854-34.465-81.598-34.465
			c-32.271,0.00-59.129,15.243-80.603,38.444c-21.475,23.201-32.212,55.589-32.212,97.192c0.00,48.245, 16.413,93.477, 49.211,135.607
			c 32.797,42.13, 73.055,63.195, 120.803,63.195c 27.999,0.00, 49.737-7.724, 65.214-23.201c 11.732-11.995, 19.602-25.746, 23.611-41.194l 14.395,50.439l 75.60,0.00 
			l-51.20-173.641c-4.008-14.131-6.846-24.605-8.602-31.393c-1.726-6.758-2.575-12.727-2.575-17.788c0.00-7.958, 2.633-15.506, 7.958-22.587
			c 5.354-7.051, 13.868-14.248, 25.60-14.248c 22.938,0.00, 45.934,18.666, 68.988,48.655s 32.768,69.808, 32.768,119.398c0.00,73.348-29.637,126.011-92.57,157.989
			c-39.468,20.275-83.851,26.741-133.179,26.741c-90.697,0.00-163.489-24.049-218.434-79.55c-49.591-50.117-79.872-110.27-79.872-180.40
			c0.00-77.853, 34.553-150.557, 92.687-196.169c 51.463-40.258, 114.249-75.015, 188.387-75.015c 50.644,0.00, 98.011,9.333, 142.014,27.999
			c 23.962,9.889, 48.772,23.845, 74.372,42.013l 9.596,6.788l 29.199-44.793c-37.859-29.345-78.848-51.697-122.997-66.999
			c-44.12-15.301-89.936-22.996-137.421-22.996c-110.621,0.00-198.188,49.035-259.013,117.819c-50.41,57.081-79.258,135.665-79.258,213.782
			c0.00,87.479, 36.952,161.587, 99.884,222.413c 66.15,64.249, 150.791,92.745, 254.011,92.745c 83.997,0.00, 153.60-18.344, 208.808-62.347
			c 58.134-46.402, 83.529-107.988, 83.529-184.788c0.00-60.533-14.746-112.464-51.551-155.794c-36.776-43.301-78.76-68.667-126.011-68.667
			c-24.547,0.00-43.388,10.562-56.613,24.459c-13.195,13.868-19.807,28.145-19.807,42.803c0.00,1.843, 0.059,3.92, 0.205,6.203
			s 0.351,4.74, 0.614,7.402C 1449.545,948.10, 1438.223,932.74, 1425.671,921.30z"  />
<glyph unicode="&#xe01b;" d="M 723.705,914.571c-43.33,11.264-39.585,77.736-42.072,76.507c-2.487-1.258, 0.614,41.896, 0.614,41.896
			c 43.915,24.605, 59.597,79.521, 59.597,79.521l0.00,76.42 c0.00,0.00-13.458,93.125-83.529,93.125l-60.357,21.094c-77.97,0.00-85.577-114.191-85.577-114.191
			s 0.614-21.27,0.00-69.398c-0.614-48.128, 54.477-90.492, 54.477-90.492s 3.101-41.311, 0.614-40.082c-2.487,1.258, 19.397-63.108-56.876-74.372
			s-84.056-47.835-98.421-61.557c-24.927-32.212-20.129-82.037-20.129-82.037l 464.779,0.00 c0.00,0.00-7.08,69.573-21.445,83.354
			C 820.955,868.052, 799.978,903.307, 723.705,914.571z M 1452.061,1152.08c-8.572,9.596-20.012,14.395-34.406,14.395
			c-27.736,0.00-51.61-17.262-71.592-51.814c-20.012-34.523-29.989-67.935-29.989-100.206c0.00-19.456, 4.447-38.853, 13.371-50.849
			c 8.982-11.995, 21.533-17.993, 37.829-17.993c 28.526,0.00, 51.931,25.337, 70.188,68.667c 18.256,43.33, 27.414,77.414, 27.414,102.224
			C 1464.847,1130.635, 1460.575,1142.484, 1452.061,1152.08z M 1796.886,1530.20l-1579.886,0.00 c-32.30,0.00-58.514-26.214-58.514-58.514l0.00-1111.771 c0.00-32.30, 26.214-58.485, 58.514-58.485l 292.571,0.00 l0.00,58.485 
			c-32.30,0.00-58.514,26.214-58.514,58.544c0.00,32.30, 26.214,58.485, 58.514,58.485l 117.029,0.00 c 32.30,0.00, 58.514-26.214, 58.514-58.485c0.00-32.329-26.214-58.544-58.514-58.544l0.00-58.485 l 760.686,0.00 l0.00,58.485 
			c-32.30,0.00-58.485,26.214-58.485,58.544c0.00,32.30, 26.214,58.485, 58.485,58.485l 117.029,0.00 c 32.329,0.00, 58.514-26.214, 58.514-58.485c0.00-32.329-26.185-58.544-58.514-58.544l0.00-58.485 
			l 292.601,0.00 c 32.30,0.00, 58.485,26.185, 58.485,58.485l0.00,1111.771 C 1855.371,1504.015, 1829.186,1530.20, 1796.886,1530.20z M 921.60,769.514
			c0.00-32.30-28.643-60.943-60.943-60.943l-468.114,0.00 c-32.30,0.00-58.514,28.643-58.514,60.943l0.00,526.629 c0.00,32.30, 26.214,58.514, 58.514,58.514l 468.114,0.00 c 32.30,0.00, 60.943-26.214, 60.943-58.514L 921.60,769.514 z
			 M 1423.243,921.30c-22.674-20.539-49.883-34.465-81.598-34.465c-32.30,0.00-59.129,15.243-80.603,38.444c-21.475,23.201-32.212,55.589-32.212,97.192
			c0.00,48.245, 16.413,93.477, 49.211,135.607c 32.797,42.13, 73.055,63.195, 120.803,63.195c 27.999,0.00, 49.708-7.724, 65.214-23.201
			c 11.703-11.995, 19.602-25.746, 23.611-41.194l 14.395,50.439l 75.60,0.00 l-51.20-173.641c-4.008-14.131-6.846-24.605-8.602-31.393
			c-1.755-6.758-2.604-12.727-2.604-17.788c0.00-7.958, 2.662-15.506, 7.987-22.587c 5.325-7.051, 13.868-14.248, 25.60-14.248
			c 22.908,0.00, 45.934,18.666, 68.988,48.655s 32.768,69.808, 32.768,119.398c0.00,73.348-29.667,126.011-92.57,157.989c-39.497,20.275-83.88,26.741-133.208,26.741
			c-90.697,0.00-163.489-24.049-218.405-79.55c-49.591-50.117-79.872-110.27-79.872-180.40c0.00-77.853, 34.553-150.557, 92.687-196.169
			c 51.463-40.258, 114.249-75.015, 188.387-75.015c 50.644,0.00, 98.011,9.333, 142.014,27.999c 23.991,9.889, 48.801,23.845, 74.401,42.013l 9.596,6.788
			l 29.199-44.793c-37.888-29.345-78.848-51.697-122.997-66.999s-89.936-22.996-137.392-22.996c-110.68,0.00-198.217,49.035-259.043,117.819
			c-50.41,57.081-79.258,135.665-79.258,213.782c0.00,87.479, 36.952,161.587, 99.884,222.413c 66.121,64.249, 150.791,92.745, 254.011,92.745
			c 83.997,0.00, 153.60-18.344, 208.808-62.347c 58.105-46.402, 83.529-107.988, 83.529-184.788c0.00-60.533-14.746-112.464-51.551-155.794
			c-36.805-43.301-78.789-68.667-126.011-68.667c-24.547,0.00-43.388,10.562-56.642,24.459c-13.195,13.868-19.778,28.145-19.778,42.803
			c0.00,1.843, 0.059,3.92, 0.205,6.203s 0.322,4.74, 0.614,7.402C 1447.117,948.10, 1435.765,932.74, 1423.243,921.30z"  />
<glyph unicode="&#xe01c;" d="M 1796.857,1530.20L 219.429,1530.20 c-32.30,0.00-58.514-26.214-58.514-58.514l0.00-1111.771 c0.00-32.30, 26.214-58.485, 58.514-58.485l 290.143,0.00 
			l0.00,58.485 c-32.30,0.00-58.514,26.214-58.514,58.544c0.00,32.30, 26.214,58.485, 58.514,58.485l 117.029,0.00 c 32.30,0.00, 58.514-26.214, 58.514-58.485c0.00-32.329-26.214-58.544-58.514-58.544l0.00-58.485 l 760.686,0.00 
			l0.00,58.485 c-32.30,0.00-58.514,26.214-58.514,58.544c0.00,32.30, 26.214,58.485, 58.514,58.485l 117.029,0.00 c 32.329,0.00, 58.514-26.214, 58.514-58.485c0.00-32.329-26.185-58.544-58.514-58.544l0.00-58.485 l 292.571,0.00 
			c 32.329,0.00, 58.514,26.185, 58.514,58.485l0.00,1111.771 C 1855.371,1504.015, 1829.186,1530.20, 1796.857,1530.20z M 1038.629,652.485c0.00-32.30-28.643-58.514-60.943-58.514l-643.657,0.00 
			c-32.30,0.00-58.514,26.214-58.514,58.514l0.00,702.171 c0.00,32.329, 26.214,58.544, 58.514,58.544l 643.657,0.00 c 32.30,0.00, 60.943-26.214, 60.943-58.544L 1038.629,652.485 z M 1746.622,923.992
			c-36.805-43.33-78.789-68.637-126.011-68.637c-24.547,0.00-43.388,10.562-56.613,24.43c-13.224,13.897-19.807,28.145-19.807,42.803
			c0.00,1.843, 0.059,3.95, 0.205,6.203c 0.146,2.282, 0.322,4.74, 0.614,7.402c-10.152-19.193-21.475-34.523-33.997-45.992
			c-22.674-20.509-49.883-34.465-81.598-34.465c-32.30,0.00-59.129,15.243-80.603,38.444s-32.212,55.589-32.212,97.192c0.00,48.245, 16.413,93.447, 49.211,135.607
			s 73.055,63.195, 120.803,63.195c 27.999,0.00, 49.708-7.753, 65.214-23.172c 11.703-12.025, 19.602-25.776, 23.611-41.223l 14.395,50.41l 75.60,0.00 l-51.20-173.583
			c-4.008-14.16-6.846-24.635-8.602-31.422s-2.604-12.756-2.604-17.788c0.00-7.987, 2.662-15.536, 7.987-22.587
			c 5.325-7.051, 13.868-14.248, 25.60-14.248c 22.908,0.00, 45.934,18.666, 68.959,48.655c 23.084,29.989, 32.797,69.808, 32.797,119.398
			c0.00,73.318-29.667,126.011-92.57,157.989c-39.497,20.246-83.88,26.741-133.208,26.741c-90.697,0.00-143.974-24.079-198.919-79.55
			c-49.591-50.147-89.615-110.27-89.615-180.40c0.00-77.853, 44.325-150.557, 102.429-196.169c 51.493-40.258, 94.764-75.015, 168.901-75.015
			c 50.644,0.00, 98.011,9.304, 142.014,27.999c 23.991,9.889, 48.801,23.845, 74.401,42.013l 9.596,6.817l 29.199-44.793
			c-37.888-29.374-78.848-51.697-122.997-67.028c-44.149-15.301-89.936-22.996-137.392-22.996c-110.68,0.00-178.732,49.035-239.557,117.819
			c-50.41,57.081-84.114,135.636-84.114,213.782c0.00,87.45, 41.838,161.587, 104.741,222.413c 66.15,64.249, 131.306,92.745, 234.525,92.745
			c 83.997,0.00, 153.60-18.315, 208.808-62.347c 58.105-46.402, 83.529-107.988, 83.529-184.788C 1798.173,1019.253, 1783.428,967.351, 1746.622,923.992z M 1505.426,1135.404
			c-27.736,0.00-51.61-17.262-71.592-51.814c-20.012-34.523-29.989-67.935-29.989-100.206c0.00-19.456, 4.447-38.853, 13.371-50.849
			c 8.982-11.995, 21.533-17.993, 37.829-17.993c 28.526,0.00, 51.931,25.337, 70.188,68.667s 27.414,77.414, 27.414,102.195c0.00,14.131-4.272,26.01-12.815,35.606
			C 1531.29,1130.606, 1519.821,1135.404, 1505.426,1135.404z M 793.629,850.176c-105.823,15.623-44.793,138.357-48.245,136.66
			c-3.482-1.755, 0.878,25.132, 0.878,25.132c 60.943,34.143, 60.709,125.572, 60.709,125.572L 806.971,1203.017 c0.00,0.00-6.846,129.20-104.068,129.20l-83.792,29.257
			c-108.193,0.00-106.086-158.457-106.086-158.457s 0.878,11.059,0.00-55.735c-0.878-66.765, 57.841-140.785, 57.841-140.785s 4.33-26.887, 0.878-25.132
			c-3.482,1.726, 31.978-115.536-73.845-131.16c-105.852-15.594-116.648-66.355-136.602-85.431c-34.582-44.676-27.941-111.323-27.941-111.323l 644.974,0.00 
			c0.00,0.00-9.801,94.062-29.784,113.137C 928.563,785.664, 899.482,834.582, 793.629,850.176z"  />
<glyph unicode="&#xe01d;" d="M 1032.836,659.156c-173.963,25.688-139.732,227.416-145.467,224.578
			c-5.676-2.867, 1.434,41.37, 1.434,41.37c 100.206,56.086, 116.853,206.409, 116.853,206.409l0.00,197.778 c0.00,0.00-28.35,200.177-188.153,200.177l-137.684,57.841
			c-177.854,0.00-195.116-258.019-195.116-258.019s 1.434-71.943,0.00-181.716c-1.434-109.802, 115.80-231.483, 115.80-231.483s 7.139-44.178, 1.434-41.311
			s 25.746-199.621-121.388-215.567c-173.934-25.659-317.967-133.12-350.735-164.454c-56.847-73.465-54.974-255.093-54.974-255.093L 1419.849,239.667 
			c0.00,0.00-18.491,223.70-51.288,255.093C 1335.764,526.036, 1206.799,633.498, 1032.836,659.156z M 1941.094,242.037c0.00,0.00-33.616,183.033-60.826,209.072
			c-27.18,26.01-134.144,115.127-278.382,136.368c-144.238,21.299-118.287,188.562-123.026,186.192c-4.71-2.399, 1.20,34.289, 1.20,34.289
			c 83.061,46.519, 111.909,171.154, 111.909,171.154l0.00,211.50 c0.00,0.00-36.074,176.099-168.609,176.099l-114.161,44.734c-147.456,0.00-178.03-220.833-178.03-220.833
			s 1.17-107.198,0.00-198.217s 112.289-191.927, 112.289-191.927s 5.91-36.659, 1.17-34.289c-2.838,1.434, 13.40-55.442-4.242-105.794
			c 164.571-102.40, 194.56-131.92, 209.189-150.206c 36.571-47.543, 32.914-266.913, 32.914-266.913L 1941.094,242.037z"  />
<glyph unicode="&#xe01e;" d="M 1067.535,557.049c-190.318,28.379-176.333,128.936-177.883,135.899
			c 0.41,17.584, 0.878,98.333, 0.878,98.333s 109.392,71.739, 143.623,169.282c 53.862,34.026, 78.029,38.766, 86.952,77.941c0.00,0.00, 18.169,148.158-39.673,148.158
			c0.00,0.00-24.108-3.862-16.413,30.837s 0.585,139.498-3.277,178.059s 7.402,148.802-73.611,164.22c-55.296,10.299-61.703-5.325-88.708-1.463
			c-27.004,3.833-59.129,85.694-109.275,85.694l-104.155-21.299c-50.147,0.00-42.423-15.419-69.427-19.28c-27.004-3.833, 5.50,3.862-75.542-11.557
			c-81.013-15.448-109.597-119.574-113.459-158.135s-3.92-150.674-1.317-208.516c 7.695-34.728-23.845-34.728-23.845-34.728
			c-48.538,3.131-26.741-148.10-26.741-148.10c 6.992-37.274-2.487-55.852, 69.369-84.699c 34.231-97.514, 150.587-146.754, 150.587-146.754
			s 4.301-62.523, 5.676-107.052c-7.314,3.657, 16.091-113.84-207.141-146.812c-223.261-32.885-240.406-105.238-282.478-145.496
			c-42.072-40.287-38.883-229.756-38.883-229.756L 1418.094,181.826 c0.00,0.00-4.564,189.469-46.665,229.756C 1329.357,451.84, 1290.796,524.164, 1067.535,557.049z
			 M 1934.424,183.376c0.00,0.00-7.022,134.261-39.263,165.098c-32.271,30.866-61.791,86.279-232.887,111.528c-138.181,19.778-156.555,112.816-157.725,118.14
			c 0.322,13.458, 2.633,70.48, 2.633,70.48s 92.833,45.846, 119.047,120.569c 41.282,26.097, 43.271,29.725, 50.117,59.772c0.00,0.00, 2.984,113.488-41.37,113.488
			c0.00,0.00-18.491-2.955-12.581,23.669c 4.096,39.409, 1.20,112.523-1.755,142.043c-2.984,29.55, 8.397,114.044-53.687,125.864
			c-42.364,7.899-22.587-4.096-43.271-1.141c-20.685,2.984-45.349,61.147-83.734,61.147l-79.843-17.379c-38.415,0.00-32.505-11.82-53.189-14.775
			s 15.184,2.955-46.928-8.865s-70.276-91.633-73.231-121.183c-2.984-29.55-3.774-115.478-1.814-159.803c 5.91-26.624-28.496-26.624-28.496-26.624
			c-37.186,2.399-27.794-113.488-27.794-113.488c 5.383-28.584-1.902-42.803, 53.16-64.922c 26.214-74.752, 100.586-112.464, 100.586-112.464
			s-7.665-51.58-6.641-85.723c 66.443-39.00, 116.385-56.73, 158.106-133.968c 46.256-130.224, 44.88-251.465, 44.88-251.465
			C 1701.888,183.376, 1934.424,183.376, 1934.424,183.376z"  />
<glyph unicode="&#xe01f;" d="M 1093.339,1675.198c 194.443,0.00, 208.165-256.00, 208.165-256.00l0.00-240.64 c0.00,0.00, 0.497-182.886-121.388-251.143
	c0.00,0.00-8.689-53.804-1.755-50.322s-34.728-241.986, 176.976-273.262c 211.646-31.188, 368.611-161.938, 408.517-200.148c 39.907-38.151, 66.853-307.902, 66.853-307.902
	L 189.645,95.781 c0.00,0.00-2.311,218.58, 66.853,307.902c 39.907,38.21, 215.157,168.931, 426.803,200.148c 211.675,31.247, 140.785,265.772, 147.719,262.29
	c 6.934-3.452-1.726,50.322-1.726,50.322s-115.01,148.041-113.254,281.629s0.00,221.155,0.00,221.155S 709.398,1736.141, 925.813,1736.141L 1093.339,1675.198z"  />
<glyph unicode="&#xe020;" d="M 936.96,1763.262c-59.012,0.00-49.913-26.361-81.686-30.925
	c-31.744-4.535, 6.437,12.785-88.854-5.383c-95.291-18.169-128.936-140.668-133.471-186.046c-4.535-45.378-5.647-172.939-2.662-240.991
	c 9.099-40.843-22.674-40.843-22.674-40.843c-57.081,3.657-31.422-174.256-31.422-174.256c 8.221-43.886-2.955-65.712, 81.598-99.65
	c 40.287-114.717, 145.496-175.397, 145.496-175.397s 0.556-70.802, 2.107-123.202c-8.602,4.272, 29.374-133.91-233.267-172.676
	c-262.641-38.736-312.905-123.816-362.437-171.184c-49.503-47.397-47.601-277.007-47.601-277.007l 1695.013-0.878c0.00,0.00-12.61,230.488-62.113,277.884
	c-49.503,47.338-103.453,132.418-366.095,171.184c-255.356,36.923-213.343,173.202-215.157,181.365c 0.468,20.626, 3.218,108.164, 3.218,108.164
	s 89.176,70.393, 129.434,185.139c 63.371,39.995, 87.508,45.583, 98.011,91.692c0.00,0.00, 18.637,179.785-41.194,178.849c0.00,0.00-28.379-9.128-19.28,31.715
	s 6.056,168.375, 1.521,213.753s 2.282,175.075-93.008,193.243c-65.039,12.112-73.523,0.117-105.296,4.681C 1155.365,1707.03, 1117.564,1789.33, 1058.582,1789.33
	L 936.96,1763.262z"  />
<glyph unicode="&#xe021;" d="M 993.251,489.757c-152.225,22.499-129.609,194.15-134.612,191.693
			c-4.974-2.516, 1.258,36.162, 1.258,36.162c 87.684,49.123, 117.204,185.52, 117.204,185.52l0.00,173.085 c0.00,0.00-32.417,185.871-172.295,185.871l-120.51,61.586
			c-155.619,0.00-173.495-247.457-173.495-247.457s 1.229-62.961,0.00-159.071c-1.258-96.051, 116.268-202.547, 116.268-202.547s 6.261-38.707, 1.258-36.191
			c-4.974,2.516, 33.821-166.181-118.433-188.65c-152.254-22.469-278.294-116.473-306.995-143.945c-49.737-64.278-40.784-220.833-40.784-220.833l 1169.847,0.00 
			c0.00,0.00-16.208,193.36-44.88,220.833C 1258.408,373.255, 1145.505,467.288, 993.251,489.757z M 1438.223,1705.655c-256.585,0.00-457.289-142.512-457.289-327.358
			c0.00-104.653, 59.392-187.129, 163.84-248.481c 23.698-13.897, 20.509-125.016-112.552-188.006c0.00,0.00, 195.204-25.805, 314.661,125.191
			c 29.55-4.242, 60.094-6.466, 91.341-6.466c 256.614,0.00, 412.965,132.944, 412.965,317.762C 1851.187,1563.143, 1694.837,1705.655, 1438.223,1705.655z"  />
<glyph unicode="&#xe022;" d="M 1272.686,1791.086l-526.629,0.00 l0.00-409.60 l 526.629,0.00 L 1272.686,1791.086 z M 921.60,1440.00l-117.029,0.00 l0.00,58.514 l 117.029,0.00 L 921.60,1440.00 z M 1214.171,1440.00l-117.029,0.00 l0.00,58.514 l 117.029,0.00 L 1214.171,1440.00 z
			 M 1331.20,1322.971L 683.886,1322.971 c0.00,0.00-113.371,3.686-113.371-117.029l0.00-994.743 c0.00-96.929, 78.614-175.543, 175.543-175.543l 526.629,0.00 c 96.958,0.00, 175.543,78.614, 175.543,175.543L 1448.229,1204.129 
			C 1448.229,1301.058, 1331.20,1322.971, 1331.20,1322.971z M 1330.907,737.214l-57.315,0.00 l 1.229-115.215l-235.90-2.428l 1.843-119.457l-15.067,0.00 
			c 39.936-8.251, 69.925-43.593, 69.925-85.957c0.00-48.479-39.292-87.771-87.771-87.771s-87.771,39.292-87.771,87.771c0.00,42.335, 30.018,77.678, 69.925,85.957l-11.44,0.00 l 1.843,60.328l-234.057,0.00 
			l 1.755,59.216c-35.577,9.538-60.27,35.284-60.27,76.098c0.00,52.517, 35.284,98.743, 87.771,98.743c 52.517,0.00, 89.615-46.226, 89.615-98.743
			c0.00-40.843-19.31-66.589-52.517-76.156l 166.473,1.17l0.00,233.443 l-60.328,0.00 l 88.386,119.486l 94.471-120.686L 1038.921,853.014 l0.00-170.657 l 172.50-1.258l 1.20,54.886l-58.485,0.00 
			l0.00,121.30 l 176.772,0.00 L 1330.907,737.214 z M 812.705,619.63l-9.07-0.059l0.00-0.614 l-55.472,3.657l-0.088-2.955c 10.24-2.779, 21.27-4.359, 33.002-4.359
			C 792.781,615.30, 803.226,616.909, 812.705,619.63z M 990.003,500.114l 35.694,0.00 c-5.764,1.20-11.732,1.814-17.847,1.814
			S 995.796,501.314, 990.003,500.114z"  />
<glyph unicode="&#xe023;" d="M 1623.771,1644.80l-1228.80,0.00 c-96.929,0.00-175.543-78.585-175.543-175.543l0.00-1111.771 c0.00-96.958, 78.614-175.543, 175.543-175.543l 1228.80,0.00 
			c 96.929,0.00, 175.543,78.585, 175.543,175.543l0.00,1111.771 C 1799.314,1566.215, 1720.70,1644.80, 1623.771,1644.80z M 856.24,1528.825l 303.543,0.00 c 32.30,0.00, 58.514-26.185, 58.514-58.514s-26.214-58.514-58.514-58.514L 856.24,1411.796 
			c-32.30,0.00-58.514,28.028-58.514,60.357C 797.725,1504.453, 823.91,1528.825, 856.24,1528.825z M 472.24,1528.24l 153.60,0.00 c 32.30,0.00, 58.514-18.90, 58.514-51.20
			c0.00-32.30-26.214-64.015-58.514-64.015l-112.143,0.00 c0.00,0.00-60.328,7.929-60.328-50.586l 0.293-70.393c0.00-32.329-31.685-58.514-64.015-58.514
			c-32.329,0.00-54.857,26.214-54.857,58.514l0.00,70.685 C 334.789,1362.732, 330.811,1528.24, 472.24,1528.24z M 335.111,1068.668c0.00,32.30, 28.028,58.514, 60.328,58.514
			s 58.514-26.214, 58.514-58.514l0.00-246.257 c0.00-32.30-26.214-58.514-58.514-58.514s-60.328,26.214-60.328,58.514L 335.111,1068.668 z M 636.489,299.703l-126.771,0.00 c0.00,0.00-172.793-16.735-172.793,124.665l0.00,173.729 
			c0.00,32.30, 26.214,53.014, 58.514,53.014s 58.514-20.714, 58.514-53.014l0.00-112.143 c0.00,0.00-2.428-67.643, 56.086-67.643l 126.479,0.293c 32.30,0.00, 58.514-24.342, 58.514-56.70
			C 695.003,329.604, 668.818,299.703, 636.489,299.703z M 1160.982,299.44L 857.439,299.44 c-32.30,0.00-58.514,29.842-58.514,62.171s 26.185,56.70, 58.514,56.70l 303.543,0.00 
			c 32.329,0.00, 53.658-24.342, 53.658-56.70S 1193.311,299.44, 1160.982,299.44z M 1155.803,942.365l 0.41-291.957c0.00,0.00-0.936-56.70-56.70-58.514l-178.176-0.029
			c0.00,0.00-56.349-0.146-59.099,54.682l 0.41,295.79l-167.00,0.00 c-60.065,0.00-29.55,25.483-29.55,25.483l 315.831,322.267
			c 18.403,14.98, 33.441-0.497, 33.441-0.497l 336.896-322.677c 30.632-31.481-27.326-24.605-27.326-24.605L 1155.803,942.307 z M 1682.432,475.889
			c0.00,0.00, 0.322-176.45-141.107-176.45l-153.60,0.00 c-32.30,0.00-58.514,26.214-58.514,58.514c0.00,32.30, 26.214,58.514, 58.514,58.514l 112.172,0.00 c0.00,0.00, 65.829,1.229, 65.829,59.714l-0.293,121.593
			c0.00,32.329, 26.185,58.514, 58.514,58.514c 32.30,0.00, 58.485-26.185, 58.485-58.514L 1682.432,475.889 z M 1682.754,819.953c0.00-32.30-26.214-58.514-58.514-58.514s-60.328,26.214-60.328,58.514l0.00,242.60 
			c0.00,32.329, 28.028,58.514, 60.328,58.514s 58.514-26.214, 58.514-58.514L 1682.754,819.953 z M 1682.754,1292.954c0.00-32.329-26.214-58.514-58.514-58.514s-58.514,26.185-58.514,58.514L 1565.725,1349.01 
			c0.00,0.00, 2.428,62.171-56.057,62.171L 1386.789,1410.86c-32.30,0.00-58.514,29.872-58.514,62.171c0.00,32.30, 26.214,56.70, 58.514,56.70l 123.143,0.00 
			c0.00,0.00, 172.793,16.764, 172.793-124.635L 1682.725,1292.954 z"  />
<glyph unicode="&#xe024;" d="M 1010.132,1501.469c-323.116,0.00-585.084-264.572-585.084-587.717
			c0.00-323.116, 261.968-585.084, 585.084-585.084c 323.116,0.00, 583.973,261.968, 583.973,585.084C 1594.105,1236.897, 1333.248,1501.469, 1010.132,1501.469z
			 M 1005.275,1326.658c 34.523,0.00, 62.493-27.97, 62.493-62.464c0.00-34.494-27.97-62.464-62.493-62.464c-34.494,0.00-60.738,27.999-60.738,62.464
			C 944.567,1298.688, 970.811,1326.658, 1005.275,1326.658z M 1279.824,1088.124l-211.997-0.936l 0.117-230.839l 120.686-259.072
			c 7.314-26.565-24.254-33.148-24.254-33.148c-30.954,0.00-40.082,23.991-40.082,23.991l-87.771,155.736c-7.314,18.081-29.023,21.387-29.023,21.387
			c-18.052,0.00-31.159-26.536-31.159-26.536l-87.771-146.198c0.00-30.983-32.037-28.409-32.037-28.409s-30.808,4.623-21.68,28.409l 114.454,263.841l-1.697,233.238
			l-217.615,0.322c-22.674-0.322-21.826,28.292-21.826,28.292c0.00,27.121, 17.349,29.462, 17.349,29.462l 555.271-0.41c0.00,0.00, 22.704-1.404, 22.704-32.475
			C 1303.464,1114.748, 1301.767,1088.124, 1279.824,1088.124z M 1009.957,1790.384c-484.293,0.00-876.895-392.572-876.895-876.895
			c0.00-484.293, 392.602-876.895, 876.895-876.895c 484.264,0.00, 876.749,392.602, 876.749,876.895C 1886.705,1397.782, 1494.221,1790.384, 1009.957,1790.384z
			 M 1009.664,210.235c-388.33,0.00-703.137,314.807-703.137,703.137c0.00,388.33, 314.807,708.491, 703.137,708.491S 1718.067,1301.701, 1718.067,913.371
			C 1718.067,525.041, 1397.994,210.235, 1009.664,210.235z"  />
<glyph unicode="&#xe025;" d="M 1740.80,1617.971l-1462.857,0.00 c-32.30,0.00-58.514-26.185-58.514-58.514l0.00-468.114 c0.00-32.30, 26.214-58.514, 58.514-58.514l0.00-760.686 
			c0.00,0.00-5.50-58.544, 56.70-58.544l 62.171,0.00 c0.00,0.00, 56.70,1.872, 56.70,56.70l0.00,118.843 l 1113.585,0.00 l-1.20-111.557c0.00-59.099, 57.90-61.557, 57.90-61.557l 58.514,0.00 
			c 58.514,0.00, 58.514,64.629, 58.514,64.629L 1740.829,1032.828 c 32.30,0.00, 58.514,26.214, 58.514,58.514l0.00,468.114 C 1799.314,1591.786, 1773.10,1617.971, 1740.80,1617.971z M 1333.014,1559.457l-469.928-468.114l-234.057,0.00 
			l 469.928,468.114L 1333.014,1559.457 z M 276.714,1559.457l 121.915,0.00 l-121.915-117.029L 276.714,1559.457 z M 396.785,1091.343l-120.071,1.814l0.00,115.215 l 355.972,351.086l 232.243,0.00 L 396.785,1091.343z
			 M 453.486,681.743l 62.171,0.00 l-62.171-58.514L 453.486,681.743 z M 453.486,447.685l0.00,56.70 l 234.057,179.171l 173.729,0.00 l-287.685-235.871L 453.486,447.685 z M 741.171,447.685l 299.271,234.057l 171.886,0.00 
			l-288.914-234.057L 741.171,447.685 z M 1446.415,447.685l 117.029,117.029l 1.814-117.029L 1446.415,447.685 z M 1272.686,447.685l-175.543,0.00 l 294.385,234.057l 173.729,1.814L 1272.686,447.685z M 1565.257,740.228l-1111.771,0.00 
			L 453.486,1032.828 l 1111.771,0.00 L 1565.257,740.228 z M 1740.80,1091.343l-173.729,0.00 l 173.729,173.729L 1740.80,1091.343 z M 1740.80,1500.943l-407.786-409.60L 1097.143,1091.343 l 468.114,468.114l 175.543,0.00 L 1740.80,1500.943 z"  />
<glyph unicode="&#xe026;" d="M 1066.218,1644.332L 1066.218,1704.689 c0.00,0.00, 6.70,56.70-57.315,56.70c-60.328,0.00-57.90-58.514-57.90-58.514l0.00-58.514 
			C 252.899,1653.489, 129.375,882.447, 129.375,882.447c 80.457,193.799, 290.143,179.20, 290.143,179.20c 263.314,0.00, 291.343-174.314, 291.343-174.314
			c 64.015,191.985, 295.614,173.115, 295.614,173.115c 245.029,0.00, 293.186-176.772, 293.186-176.772s 51.20,182.857, 296.229,179.20c 212.114,0.00, 288.914-175.543, 288.914-175.543l0.00,3.745 
			C 1884.804,1625.988, 1066.218,1644.332, 1066.218,1644.332z M 952.232,296.689c0.00-113.371-117.029-117.029-117.029-117.029c-122.529,0.00-117.029,117.029-117.029,117.029s 1.814,60.328-56.70,60.328
			s-62.171-58.514-62.171-58.514c0.00-235.871, 234.057-232.243, 234.057-232.243c 234.057,0.00, 232.243,230.40, 232.243,230.40L 1065.604,1000.675 l-113.371,0.00 L 952.232,296.689 z"  />
<glyph unicode="&#xe027;" d="M 1945.60,1471.539c-67.818-29.345-140.698-49.211-217.205-58.134
	c 78.087,45.70, 138.064,118.053, 166.298,204.273c-73.084-42.335-154.01-73.055-240.143-89.585c-68.959,71.768-167.263,116.59-276.041,116.59
	c-208.837,0.00-378.149-165.303-378.149-369.225c0.00-28.935, 3.335-57.139, 9.772-84.144C 695.881,1206.704, 417.236,1353.691, 230.722,1577.099
	c-32.534-54.535-51.20-117.965-51.20-185.637c0.00-128.088, 66.765-241.108, 168.229-307.346c-61.967,1.931-120.276,18.52-171.271,46.197
	C 176.421,1128.763, 176.421,1127.241, 176.421,1125.661c0.00-178.907, 130.341-328.119, 303.338-362.057c-31.715-8.426-65.156-12.932-99.621-12.932
	c-24.371,0.00-48.069,2.311-71.153,6.612c 48.128-146.695, 187.772-253.425, 353.251-256.41c-129.434-99.035-292.484-158.047-469.665-158.047
	c-30.515,0.00-60.621,1.755-90.20,5.149c 167.351-104.741, 366.124-165.888, 579.672-165.888c 695.53,0.00, 1075.902,562.615, 1075.902,1050.565
	c0.00,16.004-0.38,31.949-1.083,47.777C 1830.795,1332.451, 1894.927,1397.489, 1945.60,1471.539z"  />
<glyph unicode="&#xe028;" d="M 778.064,1345.646c0.00,0.00-11.498-8.104, 5.091-38.912l 262.173-129.20l 119.925,157.667
			c0.00,0.00-270.131,111.031-281.22,113.254c0.00,0.00-95.876,40.346-106.847,11.088c-10.971-29.257, 99.65-120.159, 99.65-120.159S 803.869,1357.934, 778.064,1345.646z
			 M 1944.81,1290.642l-173.349,5.149c0.00,0.00-136.777,252.957-286.457,230.254c-133.237-4.447-413.023-399.799-430.811-419.781l-320.161,165.361
			c0.00,0.00-103.629,83.295-179.902,80.428c 8.894-4.418-69.164-12.493, 91.487-101.464c0.00,0.00, 33.324-24.40, 13.312-22.206c0.00,0.00-82.037,7.051-110.885,7.051
			c-28.877,0.00-0.41-58.368, 84.524-77.297c0.00,0.00, 15.711-50.644, 0.176-46.197c-15.536,4.447-71.446,7.841-87.011,3.394
			c0.00,0.00-24.43-15.565, 42.189-66.619c 66.589-51.083, 239.002-150.148, 239.002-150.148s 20.012-8.894, 6.671-19.983c0.00,0.00-252.372-235.169-505.505-230.751
			c0.00,0.00-122.909,13.634-233.94,62.464c0.00,0.00-37.771-19.31-11.118-43.739c0.00,0.00, 416.037-368.611, 869.054-368.611c 91.897,0.00, 177.298,39.76, 255.649,67.994
			c-69.954,69.603-57.315,147.953-57.315,147.953s 31.013,345.995, 397.868,425.136c 169.633,30.076, 118.696-128.819, 143.857-77.327
			c 36.952,88.912, 63.634,184.788, 79.345,284.496c0.00,0.00, 51.20,48.187, 140.025,97.017C 1911.486,1243.246, 1958.122,1283.972, 1944.81,1290.642z M 1599.459,1174.696
			c-35.138,0.00-67.525,39.731-67.525,88.708c0.00,49.035, 32.358,88.766, 67.525,88.766c 35.167,0.00, 56.349-39.731, 56.349-88.766
			C 1655.808,1214.427, 1634.626,1174.696, 1599.459,1174.696z M 1579.301,893.974c0.00,0.00-217.761,2.896-359.892-303.572c0.00,0.00-54.857-94.676, 31.744-192.395
			c 8.894,4.447, 312.70,101.786, 414.866,414.866C 1666.019,812.844, 1637.025,891.78, 1579.301,893.974z"  />
<glyph unicode="&#xe029;" d="M 125.601,591.367c0.00,0.00, 245.087-112.757, 346.902-112.757c0.00,0.00, 194.092-52.048, 322.15,115.273
	c0.00,0.00, 31.481,45.787-11.088,68.023c0.00,0.00-417.792,122.558-388.213,194.794c0.00,0.00-1.814,40.755, 51.844,31.481c0.00,0.00, 60.445,60.036, 30.837,78.555
	c0.00,0.00-46.285,60.27-9.245,63.956c0.00,0.00, 94.442-25.571, 129.609-34.816c0.00,0.00, 24.079,8.66, 1.843,25.337s-61.674,49.298-54.272,56.70
	c0.00,0.00, 15.389,36.367, 74.664,10.445c0.00,0.00, 18.52,3.686, 1.843,22.206c0.00,0.00-42.686,29.637-18.637,53.687c0.00,0.00, 67.818,48.947, 240.026-160.271
	c0.00,0.00, 31.481-42.598, 35.196-1.843c0.00,0.00, 124.811,531.807, 326.627,566.974c0.00,0.00, 64.805-12.961, 77.765,7.402c0.00,0.00, 56.086,22.206, 74.635,3.716
	c0.00,0.00, 18.491-27.794, 40.726-11.118c0.00,0.00, 79.638,31.481, 55.53-20.363c0.00,0.00-82.037-73.435-109.802-75.337c-27.765-1.814-22.206-27.736, 1.843-31.451
	c0.00,0.00, 338.827-29.784, 338.827-277.884c0.00,0.00, 19.456-58.982, 82.417,2.165c0.00,0.00, 95.291,60.621, 119.369,63.547c0.00,0.00, 25.922,16.618, 22.235-22.265
	c0.00,0.00-68.491-118.608-138.854-151.903c0.00,0.00-42.569-53.658, 18.549-42.598c0.00,0.00, 59.421,12.288, 87.157,28.965c0.00,0.00, 72.236,35.167, 38.883-27.794
	c0.00,0.00-151.991-98.655-185.315-98.655c0.00,0.00-22.235-5.53-22.235-25.893c0.00,0.00-20.363-647.695-868.381-647.695c0.00,0.00-424.667-24.635-702.376,301.202
	C 136.748,543.21, 83.032,600.642, 125.601,591.367z"  />
<glyph unicode="&#xe02a;" d="M 863.466,473.49c-23.962,14.102-40.346,32.973-49.152,56.583
			c-8.836,23.611-13.224,77.005-13.224,160.183L 801.09,1032.507 l 351.378,0.00 l0.00,231.278 l-351.378,0.00 l0.00,352.841 l-146.754,0.00 c-9.157-73.991-30.779-98.392-55.091-146.315
			s-56.554-110.914-96.753-145.086c-40.141-34.172-78.672-60.445-135.051-78.76l0.00-213.928 l 148.831,0.00 l0.00-477.594 c0.00-65.536, 6.846-115.595, 20.597-150.118
			c 13.751-34.553, 38.385-67.145, 73.991-97.777c 35.577-30.691, 78.585-54.272, 128.965-70.861c 50.381-16.53, 63.254-24.839, 128.79-24.839
			c 57.783,0.00, 111.528,5.793, 161.207,17.437c 49.708,11.615, 121.066,31.89, 182.36,60.767l0.00,226.245 c-71.885-47.221-160.007-70.832-232.565-70.832
			C 938.774,444.965, 895.181,454.444, 863.466,473.49z M 1504.929,562.754c-96.607,0.00-174.928-78.351-174.928-174.928s 78.321-174.928, 174.928-174.928
			s 174.928,78.351, 174.928,174.928S 1601.507,562.754, 1504.929,562.754z"  />
<glyph unicode="&#xe02b;" d="M 1886.618,1557.936l-1053.257,0.00 c-32.30,0.00-58.514-26.214-58.514-58.514l0.00-760.686 c0.00-32.329, 26.214-58.514, 58.514-58.514l 1053.257,0.00 
			c 32.30,0.00, 58.514,26.185, 58.514,58.514l0.00,760.686 C 1945.132,1531.721, 1918.947,1557.936, 1886.618,1557.936z M 1798.846,797.25l-877.714,0.00 c-16.15,0.00-29.257,13.078-29.257,29.257s 13.107,29.257, 29.257,29.257l 877.714,0.00 
			c 16.179,0.00, 29.257-13.078, 29.257-29.257S 1815.025,797.25, 1798.846,797.25z M 1798.846,914.278l-877.714,0.00 c-16.15,0.00-29.257,13.107-29.257,29.257s 13.107,29.257, 29.257,29.257l 877.714,0.00 c 16.179,0.00, 29.257-13.107, 29.257-29.257
			S 1815.025,914.278, 1798.846,914.278z M 1798.846,1031.307l-877.714,0.00 c-16.15,0.00-29.257,13.107-29.257,29.257c0.00,16.15, 13.107,29.257, 29.257,29.257l 877.714,0.00 c 16.179,0.00, 29.257-13.107, 29.257-29.257
			C 1828.103,1044.414, 1815.025,1031.307, 1798.846,1031.307z M 1798.846,1148.336l-877.714,0.00 c-16.15,0.00-29.257,13.078-29.257,29.257c0.00,16.15, 13.107,29.257, 29.257,29.257l 877.714,0.00 
			c 16.179,0.00, 29.257-13.107, 29.257-29.257C 1828.103,1161.443, 1815.025,1148.336, 1798.846,1148.336z M 1798.846,1265.364l-877.714,0.00 c-16.15,0.00-29.257,13.078-29.257,29.257c0.00,16.15, 13.107,29.257, 29.257,29.257
			l 877.714,0.00 c 16.179,0.00, 29.257-13.107, 29.257-29.257C 1828.103,1278.471, 1815.025,1265.364, 1798.846,1265.364z M 1798.846,1382.393l-877.714,0.00 c-16.15,0.00-29.257,13.107-29.257,29.257
			c0.00,16.15, 13.107,29.257, 29.257,29.257l 877.714,0.00 c 16.179,0.00, 29.257-13.107, 29.257-29.257C 1828.103,1395.50, 1815.025,1382.393, 1798.846,1382.393z M 480.461,622.907
			c-97.982,0.00-174.928-76.976-174.928-174.928c0.00-97.982, 76.946-177.357, 174.928-177.357c 97.953,0.00, 177.357,79.404, 177.357,177.357
			C 657.818,545.931, 578.414,622.907, 480.461,622.907z M 716.332,621.707c0.00-76.80, 58.514-118.843, 58.514-118.843l 698.514,0.00 c0.00,47.543-54.857,118.843-54.857,118.843
			L 716.332,621.707 z M 595.646,1382.393c0.00,0.00-197.486-3.657-230.40,0.00c-87.771,0.00-117.029-117.029-117.029-117.029l-128.00-288.914c-36.571-51.20-45.085-109.714-45.085-109.714l0.00-365.714 
			c0.00-59.714, 86.543-54.857, 86.543-54.857c 85.343,0.00, 82.885,65.829, 82.885,65.829c0.00,157.257, 175.543,170.043, 175.543,170.043l 179.20-1.814
			c 109.714,0.00, 113.371,120.686, 113.371,120.686l 3.657,471.771C 716.332,1389.707, 595.646,1382.393, 595.646,1382.393z M 570.046,797.25l-58.514,0.00 
			c-16.179,0.00-29.257,13.078-29.257,29.257s 13.078,29.257, 29.257,29.257l 58.514,0.00 c 16.15,0.00, 29.257-13.078, 29.257-29.257S 586.225,797.25, 570.046,797.25z M 599.303,1205.036l0.00-230.40 
			c0.00-49.357-42.072-64.015-60.328-58.514l-230.40-1.814c-64.015,0.00-60.328-56.70-60.328-56.70l-59.626-0.907l 1.112,48.479l 173.729,307.20
			c 20.129,43.886, 82.271,53.014, 82.271,53.014l 96.90,0.00 C 604.804,1265.364, 599.303,1205.036, 599.303,1205.036z M 1709.261,621.707
			c-95.934,0.00-173.729-77.765-173.729-173.729s 77.765-173.729, 173.729-173.729s 173.729,77.765, 173.729,173.729S 1805.195,621.707, 1709.261,621.707z"  />
<glyph unicode="&#xe02c;" d="M 1857.36,1557.936l-1053.257,0.00 c-32.30,0.00-58.514-26.214-58.514-58.514l0.00-760.686 c0.00-32.329, 26.214-58.514, 58.514-58.514l 1053.257,0.00 
			c 32.30,0.00, 58.514,26.185, 58.514,58.514l0.00,760.686 C 1915.875,1531.721, 1889.69,1557.936, 1857.36,1557.936z M 566.389,1323.878c0.00,0.00-138.971-3.657-171.886,0.00c-87.771,0.00-117.029-117.029-117.029-117.029
			l-124.343-230.40c-36.571-51.20-48.772-109.714-48.772-109.714l0.00-365.714 c0.00-54.857, 52.429-54.857, 52.429-54.857c 58.514,0.00, 62.171,65.829, 62.171,65.829
			c0.00,157.257, 171.886,170.043, 171.886,170.043l 179.20,0.00 c 109.714,0.00, 113.371,118.843, 113.371,118.843l 3.657,413.257C 687.075,1331.193, 566.389,1323.878, 566.389,1323.878z
			 M 451.204,620.478c-97.953,0.00-172.50-74.547-172.50-172.50s 74.547-177.357, 172.50-177.357s 177.357,79.433, 177.357,177.357S 549.157,620.478, 451.204,620.478z
			 M 687.075,621.707c0.00-76.80, 58.514-118.843, 58.514-118.843l 698.514,0.00 c0.00,47.543-54.857,118.843-54.857,118.843L 687.075,621.707 z M 1680.004,621.707
			c-95.934,0.00-173.729-77.765-173.729-173.729s 77.765-173.729, 173.729-173.729s 173.729,77.765, 173.729,173.729S 1775.938,621.707, 1680.004,621.707z"  />
<glyph unicode="&#xe02d;" d="M 748.807,94.64c-31.803,0.00-57.607-25.805-57.607-57.607
			c0.00-31.832, 25.805-57.607, 57.607-57.607s 57.607,25.776, 57.607,57.607C 806.385,68.835, 780.61,94.64, 748.807,94.64z M 1270.872,92.796
			c-32.30,0.00-58.514-26.214-58.514-58.514c0.00-32.329, 26.214-58.514, 58.514-58.514s 58.514,26.185, 58.514,58.514C 1329.386,66.611, 1303.172,92.796, 1270.872,92.796z M 512.00,328.697
			c0.00-96.958, 78.614-175.543, 175.543-175.543l 643.657,0.00 c 96.929,0.00, 175.543,78.585, 175.543,175.543l0.00,585.143 l-994.743,0.00 L 512.00,328.697 z M 629.029,504.24l0.00,234.057 c0.00,64.629, 52.40,117.029, 117.029,117.029l 526.629,0.00 c 64.629,0.00, 117.029-52.40, 117.029-117.029l0.00-234.057 
			c0.00-64.629, 6.115-117.029-58.514-117.029L 1331.20,741.954 c0.00,0.00, 0.614,54.857-64.015,54.857L 751.557,796.811 c-64.629,0.00-64.015-60.328-64.015-60.328l0.00-349.272 
			C 622.914,387.211, 629.029,439.611, 629.029,504.24z M 1331.20,1381.954l-118.257,0.00 L 1210.514,1795.182c0.00,54.857-58.514,54.857-58.514,54.857l-292.571,0.00 
			c-65.829,0.00-54.857-65.829-54.857-65.829l0.00-402.286 l-117.029,0.00 c-96.929,0.00-175.543-78.585-175.543-175.543l0.00-234.057 l 994.743,0.00 l0.00,234.057 C 1506.743,1303.369, 1428.129,1381.954, 1331.20,1381.954z M 1154.428,1733.01
			l 2.458-351.086L 861.857,1381.925 l-1.20,351.086L 1154.428,1733.01 z M 1331.20,1030.839L 1331.20,1210.039 c0.00,0.00, 0.614,54.857-64.015,54.857L 751.557,1264.896 c-64.629,0.00-64.015-60.328-64.015-60.328
			l0.00-173.729 c-64.629,0.00-58.514,52.40-58.514,117.029l0.00,58.514 c0.00,64.629, 52.40,117.029, 117.029,117.029l 526.629,0.00 c 64.629,0.00, 117.029-52.40, 117.029-117.029l0.00-58.514 C 1389.714,1083.238, 1395.829,1030.839, 1331.20,1030.839z"  />
<glyph unicode="&#xe02e;" d="M 1124.352,745.084c 112.845,39.877, 137.918,81.072, 137.918,81.072
	c 53.628-66.063, 131.862-115.624, 223.642-115.624c 161.529,0.00, 283.414,131.013, 283.414,292.571c0.00,109.48-60.153,186.631-149.241,236.807c0.00,0.00, 29.14,90.229, 29.14,145.935
	c0.00,111.792-97.894,202.372-209.657,202.372c-11.323,0.00-41.516-10.094-48.391,17.145c-25.015,99.387-115.039,157.784-222.237,157.784
	c-72.353,0.00-136.836-18.286-178.849-70.627c0.00,0.00-6.70-22.001-20.597-11.176c-45.758,46.373-109.363,75.132-179.668,75.132
	c-127.152,0.00-232.331-94.032-249.827-216.357c-11.732,0.00-4.008-10.474, 26.77-10.474c-173.70,0.00-314.514-140.785-314.514-314.514
	c0.00-91.224, 38.883-173.436, 100.937-230.868c0.00,0.00, 24.693-7.812, 18.256-47.016c-2.896-14.629-4.389-29.784-4.389-45.261c0.00-128.585, 104.214-236.456, 232.799-236.456
	c 73.406,0.00, 138.854,41.311, 181.541,94.384c0.00,0.00, 35.021-31.013, 110.153-29.755l-0.556-27.97l0.00-566.857 c0.00-32.30, 26.214-58.544, 58.514-58.544l 117.029,0.00 
	c 32.30,0.00, 58.514,26.214, 58.514,58.544L 1124.352,745.084z"  />
<glyph unicode="&#xe02f;" d="M 1665.20,1440.00l-1272.686-4.886c0.00,0.00-58.514,0.00-53.628-53.628l 192.60-1106.915
			c0.00,0.00, 63.40-63.371, 107.286-63.371l 741.171,0.00 c0.00,0.00, 82.915,24.342, 87.771,58.514l 236.515,1111.771C 1704.229,1381.486, 1709.115,1440.00, 1665.20,1440.00z M 1007.938,1267.646
			l 103.804,0.263c 26.097,0.00, 19.573-15.214, 19.573-15.214l 95.583-129.609l 59.772,28.818c 15.214,10.884, 15.214-28.233, 15.214-28.233l-56.203-133.998
			c-6.554-28.233-26.097-13.019-26.097-13.019l-171.154,19.339c-19.544,6.524, 2.165,19.573, 2.165,19.573l 57.871,46.987l-122.236,179.054
			C 964.491,1269.84, 1007.938,1267.646, 1007.938,1267.646z M 684.50,626.183l-49.825,91.048c-6.963,11.908, 4.037,24.459, 4.037,24.459l 68.169,145.876
			l-53.862,38.736c-16.823,8.163, 17.554,26.829, 17.554,26.829l 165.04,47.192c 27.941,7.782, 21.475-43.476, 21.475-43.476l 46.724-165.303
			c 3.628-20.304-18.227-7.431-18.227-7.431l-68.93,28.35l-98.86-192.922C 703.342,586.979, 684.50,626.183, 684.50,626.183z M 952.144,642.216
			l-0.322-54.74c-5.939-25.483-31.247-24.40-31.247-24.40l-172.559-2.341l 66.531,121.008l 110.943,0.439
			C 959.634,678.466, 952.144,642.216, 952.144,642.216z M 932.747,1042.074c-19.544-28.233-47.806-4.33-47.806-4.33l-44.061,43.769
			c-19.544,17.379-6.524,39.088-6.524,39.088l 81.013,122.909l 76.917-109.217L 932.747,1042.074z M 1390.855,649.472l-59.333-77.883
			c-14.95-21.328-23.698-7.256-23.698-7.256l-143.916,0.965l-0.936-75.22c 0.176-18.695-31.861,11.088-31.861,11.088l-107.666,110.153
			c-19.397,21.533, 4.272,28.848, 4.272,28.848l 117.467,129.638c 16.53,12.259, 14.746-12.99, 14.746-12.99l 5.296-74.372l 216.766-0.205
			C 1417.596,683.791, 1390.855,649.472, 1390.855,649.472z M 1269.35,738.355l-46.782,103.951c-11.937,32.212, 23.845,41.633, 23.845,41.633l 61.118,32.914
			c 25.483,6.056, 35.781-19.544, 35.781-19.544l 59.626-158.632L 1269.35,738.355z M 1684.363,1615.543L 363.637,1615.543 c-32.329,0.00-58.514-26.214-58.514-58.514s 26.185-58.514, 58.514-58.514l 1320.755,0.00 
			c 32.30,0.00, 58.514,26.214, 58.514,58.514S 1716.692,1615.543, 1684.363,1615.543z"  />
<glyph unicode="&#xe030;" d="M 1673.45,1586.286l-1321.457-4.886c0.00,0.00-58.514,0.00-53.628-53.658l 187.538-1053.667l 56.261-170.247
			c0.00,0.00, 48.772-63.371, 92.657-63.371l 760.656,0.00 c0.00,0.00, 82.915,24.40, 87.801,58.514l 47.572,183.501L 1712.45,1527.771C 1712.45,1527.771, 1717.336,1586.286, 1673.45,1586.286z
			 M 1405.25,298.971l-780.20,0.673c-48.772,0.00-63.371,173.729-63.371,173.729l 906.971,1.141C 1454.021,372.114, 1405.25,298.971, 1405.25,298.971z M 652.99,955.56
			c-16.823,8.163, 17.554,26.858, 17.554,26.858l 165.04,47.192c 27.911,7.782, 21.475-43.505, 21.475-43.505l 46.724-165.303
			c 3.628-20.275-18.227-7.431-18.227-7.431l-68.93,28.35l-98.86-192.892c-14.424-32.592-33.295,6.612-33.295,6.612l-49.825,91.077
			c-6.963,11.878, 4.037,24.40, 4.037,24.40l 68.169,145.905L 652.99,955.56z M 1226.898,1152.373l 59.772,28.818c 15.214,10.854, 15.214-28.233, 15.214-28.233
			l-56.203-133.998c-6.524-28.233-26.097-13.049-26.097-13.049l-171.154,19.339c-19.544,6.524, 2.165,19.515, 2.165,19.515l 57.871,47.016l-122.236,179.024
			c-21.709,28.262, 21.738,26.097, 21.738,26.097l 103.804,0.234c 26.097,0.00, 19.544-15.184, 19.544-15.184L 1226.898,1152.373z M 1165.224,711.673l 216.766-0.205
			c 35.606,1.551, 8.865-32.739, 8.865-32.739l-59.333-77.883c-14.95-21.328-23.698-7.256-23.698-7.256l-143.916,0.965l-0.936-75.191
			c 0.176-18.725-31.861,11.059-31.861,11.059l-107.666,110.153c-19.397,21.533, 4.272,28.848, 4.272,28.848l 117.467,129.638
			c 16.53,12.259, 14.746-12.99, 14.746-12.99L 1165.224,711.673z M 1269.35,767.612l-46.782,103.951c-11.937,32.212, 23.845,41.604, 23.845,41.604
			l 61.118,32.914c 25.483,6.027, 35.781-19.544, 35.781-19.544l 59.626-158.661L 1269.35,767.612z M 992.315,1163.549L 932.747,1071.36
			c-19.544-28.233-47.806-4.33-47.806-4.33l-44.091,43.769c-19.544,17.379-6.524,39.088-6.524,39.088l 81.013,122.909L 992.315,1163.549z
			 M 952.144,671.473l-0.322-54.74c-5.939-25.483-31.247-24.40-31.247-24.40l-172.559-2.341l 66.531,120.978l 110.943,0.468
			C 959.634,707.723, 952.144,671.473, 952.144,671.473z M 1639.307,1352.931L 376.393,1352.931 L 356.879,1527.771l 1297.057,0.00 L 1639.307,1352.931z"  />
</font>
</defs>
</svg>
